When God Sleeps (2018)

Posted By: notbanned
720p (HD) / HDTV IMDb
When God Sleeps (2018)

When God Sleeps (2018)
HDTV | 1280x720 | .MKV/AVC @ 2328 Kbps | 1 h 24 min | 1.60 GiB
Audio: English AC3 384 kbps, 2 channels | Subs: English
Genre: Documentary

When God Sleeps is a rap-punk-rock documentary about Iranian musician Shahin Najafi, who is forced into hiding after hardline clerics issue a fatwa for his death, incensed by a rap song that focuses on the oppression of women and human rights abuses. Risking his life every time he steps on a stage, Shahin refuses to stop performing. In 2012, Najafi released a satirical rap song that triggered thousands to rally in a campaign for his assassination. Incensed by the song’s irreverent remarks about Ali al-Naghi, one of twelve imams revered by Shia Muslims, hardline clerics placed a $100,000 bounty on his head. “My songs didn’t make me famous,” said Shahin. “The fatwa did.” German journalist Günter Wallraff, who gave refuge to Salman Rushdie after his death fatwa, offers shelter to Shahin too. Despite the threats against his life, Shahin insists on total freedom of expression. His stubborn refusal to back down in spite of death threats is reminiscent of a suicide mission, complicating long-term planning for a new romantic relationship. Ironically, his uncompromising stance is not unlike that of the religious hardliners who want him dead. Shahin sees it as his mission, indeed his life’s purpose, to stand up to oppressive religious leaders — even if he has to pay the ultimate price for it.

General
Unique ID : 225108954732367896026007590477138478267 (0xA95A685CDB43DAB1973C01558CABC4BB)
Complete name : when.god.slps.720p.mkv
Format : Matroska
Format version : Version 4 / Version 2
File size : 1.60 GiB
Duration : 1 h 24 min
Overall bit rate : 2 714 kb/s

Video
ID : 1
Format : AVC
Format/Info : Advanced Video Codec
Format profile : High@L4.1
Format settings, CABAC : Yes
Format settings, ReFrames : 5 frames
Codec ID : V_MPEG4/ISO/AVC
Duration : 1 h 24 min
Bit rate : 2 328 kb/s
Width : 1 280 pixels
Height : 720 pixels
Display aspect ratio : 16:9
Frame rate mode : Constant
Frame rate : 23.976 (24000/1001) FPS
Color space : YUV
Chroma subsampling : 4:2:0
Bit depth : 8 bits
Scan type : Progressive
Bits/(Pixel*Frame) : 0.105
Stream size : 1.37 GiB (86%)
Writing library : x264 core 155 r2901 7d0ff22
Encoding settings : cabac=1 / ref=5 / deblock=1:0:0 / analyse=0x3:0x113 / me=hex / subme=8 / psy=1 / psy_rd=1.00:0.00 / mixed_ref=1 / me_range=16 / chroma_me=1 / trellis=2 / 8x8dct=1 / cqm=0 / deadzone=21,11 / fast_pskip=1 / chroma_qp_offset=-2 / threads=12 / lookahead_threads=2 / sliced_threads=0 / nr=0 / decimate=1 / interlaced=0 / bluray_compat=0 / constrained_intra=0 / bframes=3 / b_pyramid=2 / b_adapt=1 / b_bias=0 / direct=3 / weightb=1 / open_gop=0 / weightp=2 / keyint=250 / keyint_min=23 / scenecut=40 / intra_refresh=0 / rc_lookahead=50 / rc=crf / mbtree=1 / crf=20.0 / qcomp=0.60 / qpmin=0 / qpmax=69 / qpstep=4 / ip_ratio=1.40 / aq=1:1.00
Default : Yes
Forced : No

Audio
ID : 2
Format : AC-3
Format/Info : Audio Coding 3
Format settings, Endianness : Big
Codec ID : A_AC3
Duration : 1 h 24 min
Bit rate mode : Constant
Bit rate : 384 kb/s
Channel(s) : 2 channels
Channel positions : Front: L R
Sampling rate : 48.0 kHz
Frame rate : 31.250 FPS (1536 spf)
Bit depth : 16 bits
Compression mode : Lossy
Stream size : 232 MiB (14%)
Language : German
Service kind : Complete Main
Default : Yes
Forced : No

Text
ID : 3
Format : UTF-8
Codec ID : S_TEXT/UTF8
Codec ID/Info : UTF-8 Plain Text
Duration : 1 h 24 min
Bit rate : 24 b/s
Count of elements : 457
Stream size : 14.9 KiB (0%)
Language : English
Default : No
Forced : No


Screenshots:

When God Sleeps (2018)

When God Sleeps (2018)

When God Sleeps (2018)

When God Sleeps (2018)