Subcategories

Lick Library: 20 Classic Rock Guitar Riffs with Danny Gill [repost]

Posted By: ParRus
Lick Library: 20 Classic Rock Guitar Riffs with Danny Gill [repost]

Lick Library: 20 Classic Rock Guitar Riffs with Danny Gill
DVDRip | English | MP4 | 768 x 576 | AVC ~1500 Kbps | 25 fps
AAC | 128 Kbps | 48.0 KHz | 2 channels | 01:18:35 | 915.4 MB
Genre: eLearning Video / Guitar lesson

This excellent DVD will teach you some of the greatest rock riffs ever from guitar legends such as Jimmy Page, Ritchie Blackmore and Eric Clapton… Whole Lotta Love, Black Dog, Heartbreaker, All Right Now, Smoke On The Water, Aint Talkin Bout Love, Money For Nothing, Highway To Hell, Sunshine Of Your Love, Enter Sandman, Layla, Sweet Child O Mine, Paradise City, Smells Like Teen Spirit, Are You Gonna Go My Way, Paranoid, Walk This Way, Crazy Train, Still Of The Night, Back In Black Danny Gill is a former pupil of Joe Satriani, and co-author of Musicians Institutes Rock Lead Guitar series. His songs have appeared on numerous TV shows including The Osbournes as well as motion picture soundtracks such as Insomnia and Under Siege.
Chapters:
Highway To Hell
Back In Black
Paranoid
Smoke On The Water
Smells Like Teen Spirit
Enter Sandman
Heartbreaker
Whole Lotta Love
Black Dog
Ain't Talking''Bout Love
Crazy Train
Are you Gonna Go My Way
Layla
Sunshine Of Your Love
Walk This Way
Still Of The Night
Sweet Chlid O'Mine
Paradise City
Money For Nothing
Alright Now

General
Complete name : 14_Sunshine_Of_Your_Love.mp4
Format : MPEG-4
Format profile : Base Media
Codec ID : isom
File size : 51.8 MiB
Duration : 4mn 26s
Overall bit rate mode : Variable
Overall bit rate : 1 630 Kbps
Encoded date : UTC 2014-10-24 17:29:45
Tagged date : UTC 2014-10-24 17:29:45

Video
ID : 1
Format : AVC
Format/Info : Advanced Video Codec
Format profile : Baseline@L4.0
Format settings, CABAC : No
Format settings, ReFrames : 1 frame
Codec ID : avc1
Codec ID/Info : Advanced Video Coding
Duration : 4mn 26s
Bit rate : 1 500 Kbps
Maximum bit rate : 2 311 Kbps
Width : 768 pixels
Height : 576 pixels
Display aspect ratio : 4:3
Frame rate mode : Constant
Frame rate : 25.000 fps
Color space : YUV
Chroma subsampling : 4:2:0
Bit depth : 8 bits
Scan type : Progressive
Bits/(Pixel*Frame) : 0.136
Stream size : 47.7 MiB (92%)
Writing library : x264 core 142 r2479kMod dd79a61
Encoding settings : cabac=0 / ref=1 / deblock=0:0:0 / analyse=0:0 / me=dia / subme=0 / psy=1 / fade_compensate=0.00 / psy_rd=1.00:0.00 / mixed_ref=0 / me_range=16 / chroma_me=1 / trellis=0 / 8x8dct=0 / cqm=0 / deadzone=21,11 / fast_pskip=1 / chroma_qp_offset=0 / threads=12 / lookahead_threads=2 / sliced_threads=0 / nr=0 / decimate=1 / interlaced=0 / bluray_compat=0 / constrained_intra=0 / fgo=0 / bframes=0 / weightp=0 / keyint=250 / keyint_min=25 / scenecut=0 / intra_refresh=0 / rc=2pass / mbtree=0 / bitrate=1500 / ratetol=1.0 / qcomp=0.60 / qpmin=0 / qpmax=69 / qpstep=4 / cplxblur=20.0 / qblur=0.5 / ip_ratio=1.40 / aq=0
Encoded date : UTC 2014-10-24 17:29:45
Tagged date : UTC 2014-10-24 17:29:46

Audio
ID : 2
Format : AAC
Format/Info : Advanced Audio Codec
Format profile : LC
Codec ID : 40
Duration : 4mn 26s
Bit rate mode : Variable
Bit rate : 128 Kbps
Maximum bit rate : 148 Kbps
Channel(s) : 2 channels
Channel positions : Front: L R
Sampling rate : 48.0 KHz
Compression mode : Lossy
Stream size : 4.06 MiB (8%)
Encoded date : UTC 2014-10-24 17:29:28
Tagged date : UTC 2014-10-24 17:29:46
Screenshots

Lick Library: 20 Classic Rock Guitar Riffs with Danny Gill [repost]

Lick Library: 20 Classic Rock Guitar Riffs with Danny Gill [repost]

Lick Library: 20 Classic Rock Guitar Riffs with Danny Gill [repost]

Lick Library: 20 Classic Rock Guitar Riffs with Danny Gill [repost]

Exclusive eLearning Videos ParRus-blogadd to bookmarks

Feel free to contact me PM
when links are dead or want any repost

Lick Library: 20 Classic Rock Guitar Riffs with Danny Gill [repost]