Subcategories

Tom Quayle - 51 Modern Legato Licks You Must Learn

Posted By: ParRus
Tom Quayle - 51 Modern Legato Licks You Must Learn

Tom Quayle - 51 Modern Legato Licks You Must Learn
DVDRip | English | MP4 + PDF Tabs | 1920 x 1080 | AVC ~1500 kbps | 25 fps
AAC | 115 Kbps | 44.1 KHz | 2 channels | 02:34:03 | 2.18 GB
Genre: eLearning Video / Guitar lesson

In this course, Tom will walk you through 51 intense modern legato licks that will take you from fleet fingered amateur to fretboard wizard. It's not an easy journey, but it will be the most rewarding one you take this year!
Chapters:
Introduction
Dorian Licks 1 To 5
Dorian Licks 6 To 10
Dorian Licks 11 To 16
Pentatonic Licks 17 To 22
Pentatonic Licks 23 To 28
Arpeggiated Licks 29 To 32
Arpeggiated Licks 33 To 35
String Skipping Licks 36 To 39
Chromatic Licks 40 To 43
Melodic Minor Licks 44 To 47
Melodic Minor & Diminished Licks 48 To 51
Outro
Bonus Section - Gear, Tone & Technique
Performance

General
Complete name : ll_51modernlegatolicks_outro.mp4
Format : MPEG-4
Format profile : Base Media
Codec ID : isom
File size : 2.96 MiB
Duration : 15s 423ms
Overall bit rate mode : Variable
Overall bit rate : 1 612 Kbps
Encoded date : UTC 2015-05-05 19:26:06
Tagged date : UTC 2015-05-05 19:26:06

Video
ID : 1
Format : AVC
Format/Info : Advanced Video Codec
Format profile : High@L4.0
Format settings, CABAC : Yes
Format settings, ReFrames : 4 frames
Codec ID : avc1
Codec ID/Info : Advanced Video Coding
Duration : 15s 280ms
Bit rate : 1 500 Kbps
Maximum bit rate : 7 087 Kbps
Width : 1 920 pixels
Height : 1 080 pixels
Display aspect ratio : 16:9
Frame rate mode : Constant
Frame rate : 25.000 fps
Color space : YUV
Chroma subsampling : 4:2:0
Bit depth : 8 bits
Scan type : Progressive
Bits/(Pixel*Frame) : 0.029
Stream size : 2.74 MiB (93%)
Writing library : x264 core 144 r2525kMod 40bb568
Encoding settings : cabac=1 / ref=4 / deblock=1:0:0 / analyse=0x3:0x113 / me=umh / subme=8 / psy=1 / fade_compensate=0.00 / psy_rd=1.00:0.00 / mixed_ref=1 / me_range=16 / chroma_me=1 / trellis=1 / 8x8dct=1 / cqm=0 / deadzone=21,11 / fast_pskip=1 / chroma_qp_offset=-2 / threads=12 / lookahead_threads=2 / sliced_threads=0 / nr=0 / decimate=1 / interlaced=0 / bluray_compat=0 / constrained_intra=0 / fgo=0 / bframes=3 / b_pyramid=2 / b_adapt=2 / b_bias=0 / direct=3 / weightb=1 / open_gop=0 / weightp=2 / keyint=250 / keyint_min=25 / scenecut=40 / intra_refresh=0 / rc_lookahead=50 / rc=2pass / mbtree=1 / bitrate=1500 / ratetol=1.0 / qcomp=0.60 / qpmin=0 / qpmax=69 / qpstep=4 / cplxblur=20.0 / qblur=0.5 / ip_ratio=1.40 / aq=1:1.00
Encoded date : UTC 2015-05-05 19:26:06
Tagged date : UTC 2015-05-05 19:26:06

Audio
ID : 2
Format : AAC
Format/Info : Advanced Audio Codec
Format profile : HE-AAC / LC
Codec ID : 40
Duration : 15s 423ms
Bit rate mode : Variable
Bit rate : 115 Kbps
Maximum bit rate : 136 Kbps
Channel(s) : 45 channels
Channel positions : Front: 25, Side: 11, Back: 7, LFE= 2
Sampling rate : 96.0 KHz / 24.0 KHz
Compression mode : Lossy
Stream size : 217 KiB (7%)
Encoded date : UTC 2015-05-05 19:25:51
Tagged date : UTC 2015-05-05 19:26:06
Screenshots

Tom Quayle - 51 Modern Legato Licks You Must Learn

Tom Quayle - 51 Modern Legato Licks You Must Learn

Tom Quayle - 51 Modern Legato Licks You Must Learn

For more, Visit my AH-blog

no mirrors please, Follow The Rules

Tom Quayle - 51 Modern Legato Licks You Must Learn