Larry Withers - Anatomy for artists: Man In Motion [repost]

Posted By: ParRus
Larry Withers - Anatomy for artists: Man In Motion [repost]

Larry Withers - Anatomy for artists: Man In Motion
DVD5 | English | VOB | 720 x 480 | MPEG2 ~5733 kbps | 29.970 fps
PCM | 1536 kbps | 48.0 KHz | 2 channels | 41 min | 2.36 GB
Genre: Video Tutorial / Drawing, Anatomy

It's one thing to know the parts of the body, it's another to put that knowledge into action. Anatomy for Artists: Man In Motion takes the artist to the next level by examining a variety of human activities including running, walking, jumping, climbing, lifting, throwing, boxing, pushing, pulling, dragging, carrying and more.
Working from the live model and three different camera angles this program breaks down frame by frame the component movements of the body, and concentrating on the:
major muscle groups
key frames of actions
relationship between balance and movement

General
Complete name : VTS_13_1.VOB
Format : MPEG-PS
File size : 369 MiB
Duration : 6mn 48s
Overall bit rate : 7 570 Kbps
Video #224
ID : 224 (0xE0)
Format : MPEG Video
Format version : Version 2
Format profile : Main@Main
Format settings, Matrix : Default
Duration : 6mn 48s
Bit rate mode : Variable
Bit rate : 5 733 Kbps
Nominal bit rate : 7 000 Kbps
Width : 720 pixels
Height : 480 pixels
Display aspect ratio : 4:3
Frame rate : 29.970 fps
Standard : NTSC
Colorimetry : 4:2:0
Scan type : Interlaced
Scan order : Bottom Field First
Bits/(Pixel*Frame) : 0.554
Stream size : 279 MiB (76%)
Audio #160
ID : 160 (0xA0)
Format : PCM
Format settings, Endianness : Big
Format settings, Sign : Signed
Muxing mode : DVD-Video
Duration : 6mn 48s
Bit rate mode : Constant
Bit rate : 1 536 Kbps
Channel(s) : 2 channels
Channel positions : Front: L R
Sampling rate : 48.0 KHz
Resolution : 16 bits
Stream size : 74.9 MiB (20%)
Screenshots

Larry Withers - Anatomy for artists: Man In Motion [repost]

Larry Withers - Anatomy for artists: Man In Motion [repost]

Larry Withers - Anatomy for artists: Man In Motion [repost]

Larry Withers - Anatomy for artists: Man In Motion [repost]

Larry Withers - Anatomy for artists: Man In Motion [repost]

For more, Visit my AH-blog

no mirrors please, Follow The Rules