Beginning to Draw - The Foundation of Art (3 DVD's + Manual) [Repost]

Posted By: ParRus
Beginning to Draw - The Foundation of Art (3 DVD's + Manual) [Repost]

Beginning to Draw - The Foundation of Art (3 DVD's + Manual)
DVDRip | English | AVI + PDF Manual | 720 x 480 | XviD ~1018 kbps | 29.97 fps
MP3 | 160 kbps | 48.0 KHz | 2 channel | 6 hours | 2.28 GB
Genre: Video tutorials / Drawing

The workshop is accessible to everyone who wants to learn how to draw. It is a self-contained education designed for both home and class study. The content of Beginning to Draw is equal, and more!, to a 12-week college-level foundational art course.
The first 2-hour DVD in my learning to draw workshop is your Basic Training. Here you are trained in acquiring the all-important drawing skill of striking the arabesque; assessing proportion and shape with a consistent accuracy.

The second 2-hour DVD in my learning to draw workshop is Plasticity: Form & Structure. Each successive drawing lesson and exercise builds upon the previous. You begin with a very simple object and progress to still life drawing acquiring the skills and knowledge to competently render 3-dimensional form as you learn to draw with increasingly sophisticated approaches.

The third 2-hour DVD is The Cast: An Introduction to Portrait Drawing. Learning to draw the portrait from the cast has many advantages; the most important of which is the elimination.

General
Complete name : C:\Users\Desktop\Art Academy Beginning to Draw\ArtAcademy - Beginning to Draw D1\1.4.4 shape - the apple core.avi
Format : AVI
Format/Info : Audio Video Interleave
File size : 74.5 MiB
Duration : 8mn 46s
Overall bit rate : 1 187 Kbps
Writing library : TMPGEnc 4.0 XPress Version. 4.2.3.193
Video #0
ID : 0
Format : MPEG-4 Visual
Format profile : AdvancedSimple@L5
Format settings, BVOP : Yes
Format settings, QPel : No
Format settings, GMC : No warppoints
Format settings, Matrix : Default (H.263)
Muxing mode : Packed bitstream
Codec ID : XVID
Codec ID/Hint : XviD
Duration : 8mn 46s
Bit rate : 1 018 Kbps
Width : 720 pixels
Height : 480 pixels
Display aspect ratio : 1.500
Frame rate : 29.970 fps
Standard : NTSC
Resolution : 24 bits
Colorimetry : 4:2:0
Scan type : Progressive
Bits/(Pixel*Frame) : 0.098
Stream size : 63.9 MiB (86%)
Writing library : XviD 1.1.2 (UTC 2006-11-01)
Audio #1
ID : 1
Format : MPEG Audio
Format version : Version 1
Format profile : Layer 3
Codec ID : 55
Codec ID/Hint : MP3
Duration : 8mn 46s
Bit rate mode : Constant
Bit rate : 160 Kbps
Channel(s) : 2 channels
Sampling rate : 48.0 KHz
Resolution : 16 bits
Stream size : 10.0 MiB (13%)
Alignment : Split accross interleaves
Interleave, duration : 250 ms (7.49 video frames)
Interleave, preload duration : 454 ms

Preview

Beginning to Draw - The Foundation of Art (3 DVD's + Manual) [Repost]

Beginning to Draw - The Foundation of Art (3 DVD's + Manual) [Repost]

Beginning to Draw - The Foundation of Art (3 DVD's + Manual) [Repost]

Sample pages of PDF-Manual

Beginning to Draw - The Foundation of Art (3 DVD's + Manual) [Repost]

Beginning to Draw - The Foundation of Art (3 DVD's + Manual) [Repost]



Parts of archive are interchangeable, no password

For more, Visit my AH-blog

no mirrors please, Follow The Rules