Subcategories

Blender 2.6 Essential Training [repost]

Posted By: house23
Blender 2.6 Essential Training [repost]

Blender 2.6 Essential Training
MOV | AVC 138kbps | English | 960x540 | 15fps | 7h 26mins | AAC stereo 128kbps | 1.03 GB
Genre: Video Training

This course provides an overview of modeling, animating, and rendering 3D graphics in the open-source software Blender 2.6. Beginning with a tour of the Blender interface, author George Maestri shows how to create and edit basic objects, work with modifiers and subdivision surfaces, and apply materials and textures. The course also demonstrates lighting 3D scenes, setting up and using cameras, animating objects, and assembling basic character rigs. Exercise files accompany the course.

Topics include:
Navigating in 3D space
Selecting, rotating, and scaling objects
Using Snap to move objects precisely
Creating mesh primitives and extrusions
Subdividing meshes
Creating a simple creature
Joining mesh objects and stitching vertices
Organizing a scene with layers, groups, and hierarchies
Assigning glossy and reflective materials to objects
Creating bump maps
Creating sky and ambient light
Understanding ambient occlusion
Adding motion blur and depth of field
Editing animation in the Graph Editor
Building and animating a simple character


Format : QuickTime
Format/Info : Original Apple specifications
File size : 13.1 MiB
Duration : 6mn 49s
Overall bit rate : 269 Kbps
Encoded date : UTC 2011-12-17 03:39:04
Tagged date : UTC 2011-12-17 03:39:04
Writing library : Apple QuickTime
Copyright : lynda.com
Video #1
ID : 1
Format : AVC
Format/Info : Advanced Video Codec
Format profile : Main@L3.1
Format settings, CABAC : Yes
Format settings, ReFrames : 3 frames
Codec ID : avc1
Codec ID/Info : Advanced Video Coding
Duration : 6mn 49s
Bit rate mode : Variable
Bit rate : 138 Kbps
Width : 960 pixels
Height : 540 pixels
Display aspect ratio : 16:9
Frame rate mode : Constant
Frame rate : 15.000 fps
Resolution : 24 bits
Colorimetry : 4:2:0
Scan type : Progressive
Bits/(Pixel*Frame) : 0.018
Stream size : 6.72 MiB (51%)
Encoded date : UTC 2011-12-17 03:39:04
Tagged date : UTC 2011-12-17 03:39:04
Audio #2
ID : 2
Format : AAC
Format/Info : Advanced Audio Codec
Format version : Version 4
Format profile : LC
Format settings, SBR : No
Codec ID : 40
Duration : 6mn 49s
Bit rate mode : Variable
Bit rate : 128 Kbps
Maximum bit rate : 133 Kbps
Channel(s) : 2 channels
Channel positions : L R
Sampling rate : 48.0 KHz
Resolution : 16 bits
Stream size : 6.25 MiB (48%)
Encoded date : UTC 2011-12-17 03:39:04
Tagged date : UTC 2011-12-17 03:39:04


Blender 2.6 Essential Training [repost]

Blender 2.6 Essential Training [repost]

Blender 2.6 Essential Training [repost]


No mirrors please