Subcategories

Burton Silverman - Drawing, The Language of Vision [repost]

Posted By: ParRus
Burton Silverman - Drawing, The Language of Vision [repost]

Burton Silverman - Drawing, The Language of Vision
DVDRip | English | AVI | 720 x 544 | XviD ~1031 kbps | 29.970 fps
AC-3 | 256 kbps | 48.0 KHz | 2 channels | 01:47:56 | 1000 MB
Genre: Video Tutorial / Drawing, Painting

In this, the first drawing tape from Signilar Art Videos, the viewer is taken on an extensive journey into the realm of figurative drawing. No matter what the medium, drawing, is the basis for all good painting. Burton Silverman is the perfect artist to guide us through, because of both his extensive knowledge of drawing and from having taught drawing for more than 45 years as part of his painting classes.
Silverman starts the viewer out by explaining the importance of drawing, and to see in graphic terms the shapes and values that are used to compose a picture.” He says he works from the outside in, doing a gesture outline from which he then finds the subtleties of shading and high lights. He calls drawing a kind of sculpting, cutting out the shapes and then detailing them. Silverman does two complete drawing on this DVD, one on toned paper with charcoal and one on white paper with pencil. Both are completed Silverman masterpieces. And with the running commentary he gives, this DVD is an extraordinary lesson in “Drawing as the language of vision.” We hope you enjoy watching it as much as we enjoyed making it.

More Info: http://www.signilar.com/index.php?main_page=index&cPath=4

General
Complete name : Burton Silverman - Drawing the Language of Vision.avi
Format : AVI
Format/Info : Audio Video Interleave
File size : 1 000 MiB
Duration : 1h 47mn
Overall bit rate : 1 295 Kbps
Writing application : VirtualDubMod 1.5.4.1 (build 2178/release)
Writing library : VirtualDubMod build 2178/release
Video #0
ID : 0
Format : MPEG-4 Visual
Format profile : AdvancedSimple@L5
Format settings, BVOP : Yes
Format settings, QPel : No
Format settings, GMC : No warppoints
Format settings, Matrix : Custom
Codec ID : XVID
Codec ID/Hint : XviD
Duration : 1h 47mn
Bit rate : 1 031 Kbps
Width : 720 pixels
Height : 544 pixels
Display aspect ratio : 4:3
Frame rate : 29.970 fps
Resolution : 24 bits
Colorimetry : 4:2:0
Scan type : Progressive
Bits/(Pixel*Frame) : 0.088
Stream size : 796 MiB (80%)
Writing library : XviD 1.1.2 (UTC 2006-11-01)
Audio #1
ID : 1
Format : AC-3
Format/Info : Audio Coding 3
Codec ID : 2000
Duration : 1h 47mn
Bit rate mode : Constant
Bit rate : 256 Kbps
Channel(s) : 2 channels
Channel positions : L R
Sampling rate : 48.0 KHz
Stream size : 198 MiB (20%)
Alignment : Split accross interleaves
Interleave, duration : 96 ms (2.88 video frames)
Interleave, preload duration : 96 ms

Screenshots

Burton Silverman - Drawing, The Language of Vision [repost]

Burton Silverman - Drawing, The Language of Vision [repost]

Burton Silverman - Drawing, The Language of Vision [repost]

Burton Silverman - Drawing, The Language of Vision [repost]

For more, Visit my AH-blog

no mirrors please, Follow The Rules
Download:
Filepost.com