Subcategories

VA - Cyborgasm: Erotica In 3D Sound (1993) {Time Warner}

Posted By: TestTickles
VA - Cyborgasm: Erotica In 3D Sound (1993) {Time Warner}

VA - Cyborgasm: Erotica In 3D Sound (1993) {Time Warner}
EAC Rip | FLAC with CUE and log | scans | 283 mb
MP3 CBR 320kbps | RAR | 167 mb
Genre: spoken word, erotica

WARNING: for adult listeners only.

Cyborgasm: Erotica In 3D Sound is a 1993 audio CD released by Time Warner. It was founded by author and therapist Lisa Palac, who wanted to bring sexuality into an adult medium. The title came about before the internet changed the way we viewed sexuality, figuratively and literally. This disc allows people to hear about sex in the privacy of their own home while enjoying the benefits of the subjects at hand. It is fantasy, but where your visuals are only in your mind.

VA - Cyborgasm: Erotica In 3D Sound (1993) {Time Warner}

01. Algorithm - Foreplay
02. Annie Sprinkle - Deep Inside Your Cosmic Body Erotic
03. Bronk & Wendy - Missionary
04. Belle - Jeveuxt-embrasse
05. Susie Bright - Taboo
06. Mistress Kat - Absolute Sadist
07. Susie Bright - Circus Whore
08. Jon Bailiff - Dirty Fare
09. Bunny Buckskin - 1-900 Blow
10. Susie Bright - Lost Innocence
11. T. Chase & Isabella B. - Daddy's Grrrl
12. Don Bajema - Blue Light
13. Diana Trimble - Succubus (Wet Nightmare)s
14. Bunny Buckskin & Carrington McDuffie - Pink Sweatboxes
15. Saro, T. Chase, Tom O'Mara, Bunny Buckskin, Jubal Grante & Carrington McDuffie - The Swing
16. Algorithm - Buzz Off

Exact Audio Copy V1.1 from 23. June 2015

EAC extraction logfile from 6. April 2017, 7:08

Various Artists / Cyborgasm

Used drive : TEAC DVD-ROM DV-28SW Adapter: 1 ID: 0

Read mode : Secure
Utilize accurate stream : Yes
Defeat audio cache : Yes
Make use of C2 pointers : No

Read offset correction : 6
Overread into Lead-In and Lead-Out : No
Fill up missing offset samples with silence : Yes
Delete leading and trailing silent blocks : No
Null samples used in CRC calculations : Yes
Used interface : Native Win32 interface for Win NT & 2000
Gap handling : Appended to previous track

Used output format : Internal WAV Routines
Sample format : 44.100 Hz; 16 Bit; Stereo


TOC of the extracted CD

Track | Start | Length | Start sector | End sector
––––––––––––––––––––––––––––-
1 | 0:00.32 | 1:04.45 | 32 | 4876
2 | 1:05.02 | 2:54.48 | 4877 | 17974
3 | 3:59.50 | 4:39.42 | 17975 | 38941
4 | 8:39.17 | 4:03.33 | 38942 | 57199
5 | 12:42.50 | 0:19.10 | 57200 | 58634
6 | 13:01.60 | 4:29.22 | 58635 | 78831
7 | 17:31.07 | 6:25.50 | 78832 | 107756
8 | 23:56.57 | 10:23.30 | 107757 | 154511
9 | 34:20.12 | 4:14.25 | 154512 | 173586
10 | 38:34.37 | 0:36.40 | 173587 | 176326
11 | 39:11.02 | 2:35.40 | 176327 | 187991
12 | 41:46.42 | 3:18.45 | 187992 | 202886
13 | 45:05.12 | 3:38.18 | 202887 | 219254
14 | 48:43.30 | 8:27.10 | 219255 | 257289
15 | 57:10.40 | 6:17.47 | 257290 | 285611
16 | 63:28.12 | 0:34.05 | 285612 | 288166


Track 1

Filename C:\My Documents\My FLAC\VA - Cyborgasm, Erotica In 3D Sound (1993) [FLAC] {Time Warner}\01 - Algorithm - Foreplay.wav

Pre-gap length 0:00:02.32

Peak level 37.7 %
Extraction speed 1.9 X
Track quality 100.0 %
Test CRC DC902BB6
Copy CRC DC902BB6
Accurately ripped (confidence 2) [C542C911] (AR v1)
Copy OK

Track 2

Filename C:\My Documents\My FLAC\VA - Cyborgasm, Erotica In 3D Sound (1993) [FLAC] {Time Warner}\02 - Annie Sprinkle - Deep Inside Your Cosmic Body Erotic.wav

Pre-gap length 0:00:00.03

Peak level 31.1 %
Extraction speed 2.1 X
Track quality 99.9 %
Test CRC 7A4AD415
Copy CRC 7A4AD415
Accurately ripped (confidence 2) [075EC852] (AR v1)
Copy OK

Track 3

Filename C:\My Documents\My FLAC\VA - Cyborgasm, Erotica In 3D Sound (1993) [FLAC] {Time Warner}\03 - Bronk & Wendy - Missionary.wav

Pre-gap length 0:00:00.03

Peak level 100.0 %
Extraction speed 2.8 X
Track quality 100.0 %
Test CRC 0EE45E9A
Copy CRC 0EE45E9A
Accurately ripped (confidence 2) [5138C79E] (AR v1)
Copy OK

Track 4

Filename C:\My Documents\My FLAC\VA - Cyborgasm, Erotica In 3D Sound (1993) [FLAC] {Time Warner}\04 - Belle - Jeveuxt-embrasse.wav

Pre-gap length 0:00:01.43

Peak level 56.5 %
Extraction speed 3.4 X
Track quality 100.0 %
Test CRC B29CA6A0
Copy CRC B29CA6A0
Accurately ripped (confidence 2) [AF2CFCF6] (AR v1)
Copy OK

Track 5

Filename C:\My Documents\My FLAC\VA - Cyborgasm, Erotica In 3D Sound (1993) [FLAC] {Time Warner}\05 - Susie Bright - Taboo.wav

Pre-gap length 0:00:00.53

Peak level 7.5 %
Extraction speed 1.3 X
Track quality 100.0 %
Test CRC 5DC373EC
Copy CRC 5DC373EC
Accurately ripped (confidence 2) [15FE030C] (AR v1)
Copy OK

Track 6

Filename C:\My Documents\My FLAC\VA - Cyborgasm, Erotica In 3D Sound (1993) [FLAC] {Time Warner}\06 - Mistress Kat - Absolute Sadist.wav

Pre-gap length 0:00:02.53

Peak level 100.0 %
Extraction speed 3.7 X
Track quality 100.0 %
Test CRC 5C5E5925
Copy CRC 5C5E5925
Accurately ripped (confidence 2) [C819F617] (AR v1)
Copy OK

Track 7

Filename C:\My Documents\My FLAC\VA - Cyborgasm, Erotica In 3D Sound (1993) [FLAC] {Time Warner}\07 - Susie Bright - Circus Whore.wav

Pre-gap length 0:00:02.40

Peak level 23.0 %
Extraction speed 4.1 X
Track quality 100.0 %
Test CRC 8763BE3D
Copy CRC 8763BE3D
Accurately ripped (confidence 2) [47B68EE0] (AR v1)
Copy OK

Track 8

Filename C:\My Documents\My FLAC\VA - Cyborgasm, Erotica In 3D Sound (1993) [FLAC] {Time Warner}\08 - Jon Bailiff - Dirty Fare.wav

Pre-gap length 0:00:03.35

Peak level 97.7 %
Extraction speed 4.8 X
Track quality 100.0 %
Test CRC 1B2324E7
Copy CRC 1B2324E7
Accurately ripped (confidence 2) [E4D16282] (AR v1)
Copy OK

Track 9

Filename C:\My Documents\My FLAC\VA - Cyborgasm, Erotica In 3D Sound (1993) [FLAC] {Time Warner}\09 - Bunny Buckskin - 1-900 Blow.wav

Pre-gap length 0:00:00.03

Peak level 100.0 %
Extraction speed 4.7 X
Track quality 100.0 %
Test CRC 871DC048
Copy CRC 871DC048
Accurately ripped (confidence 1) [0CE512E9] (AR v2)
Copy OK

Track 10

Filename C:\My Documents\My FLAC\VA - Cyborgasm, Erotica In 3D Sound (1993) [FLAC] {Time Warner}\10 - Susie Bright - Lost Innocence.wav

Pre-gap length 0:00:03.15

Peak level 9.3 %
Extraction speed 1.6 X
Track quality 99.7 %
Test CRC D57E34DD
Copy CRC D57E34DD
Accurately ripped (confidence 2) [22EDEDA4] (AR v1)
Copy OK

Track 11

Filename C:\My Documents\My FLAC\VA - Cyborgasm, Erotica In 3D Sound (1993) [FLAC] {Time Warner}\11 - T. Chase & Isabella B. - Daddy's Grrrl.wav

Pre-gap length 0:00:00.73

Peak level 51.8 %
Extraction speed 4.5 X
Track quality 100.0 %
Test CRC BDEF8E25
Copy CRC BDEF8E25
Accurately ripped (confidence 2) [9ECE2DAB] (AR v1)
Copy OK

Track 12

Filename C:\My Documents\My FLAC\VA - Cyborgasm, Erotica In 3D Sound (1993) [FLAC] {Time Warner}\12 - Don Bajema - Blue Light.wav

Pre-gap length 0:00:01.73

Peak level 83.0 %
Extraction speed 4.8 X
Track quality 100.0 %
Test CRC CBC8D853
Copy CRC CBC8D853
Accurately ripped (confidence 2) [AD44E7E1] (AR v1)
Copy OK

Track 13

Filename C:\My Documents\My FLAC\VA - Cyborgasm, Erotica In 3D Sound (1993) [FLAC] {Time Warner}\13 - Diana Trimble - Succubus (Wet Nightmare).wav

Pre-gap length 0:00:00.03

Peak level 26.2 %
Extraction speed 5.0 X
Track quality 100.0 %
Test CRC 24A86CFD
Copy CRC 24A86CFD
Accurately ripped (confidence 2) [1C1E7F97] (AR v1)
Copy OK

Track 14

Filename C:\My Documents\My FLAC\VA - Cyborgasm, Erotica In 3D Sound (1993) [FLAC] {Time Warner}\14 - Bunny Buckskin & Carrington McDuffie - Pink Sweatboxes.wav

Pre-gap length 0:00:02.43

Peak level 79.4 %
Extraction speed 5.7 X
Track quality 100.0 %
Test CRC D40608C9
Copy CRC D40608C9
Accurately ripped (confidence 2) [BE7CB158] (AR v1)
Copy OK

Track 15

Filename C:\My Documents\My FLAC\VA - Cyborgasm, Erotica In 3D Sound (1993) [FLAC] {Time Warner}\15 - Saro, T. Chase, Tom O'Mara, Bunny Buckskin, Jubal Grante & Carrington McDuffie - The Swing.wav

Pre-gap length 0:00:00.06

Peak level 57.0 %
Extraction speed 0.9 X
Track quality 100.0 %
Test CRC 6A4FBE4A
Copy CRC 6A4FBE4A
Accurately ripped (confidence 2) [A77CBE2A] (AR v1)
Copy OK

Track 16

Filename C:\My Documents\My FLAC\VA - Cyborgasm, Erotica In 3D Sound (1993) [FLAC] {Time Warner}\16 - Algorithm - Buzz Off.wav

Pre-gap length 0:00:01.43

Peak level 13.4 %
Extraction speed 2.8 X
Track quality 100.0 %
Test CRC B42733C1
Copy CRC B42733C1
Accurately ripped (confidence 2) [83F85421] (AR v1)
Copy OK


All tracks accurately ripped

No errors occurred

End of status report

–– CUETools DB Plugin V2.1.6

[CTDB TOCID: jp9MJb.D1QugGsRGOPSeCDd89EU-] disk not present in database
Submit result: jp9MJb.D1QugGsRGOPSeCDd89EU- has been uploaded


==== Log checksum F9190097CF4D3C284872B4DB2CC51C303D1EE4D51D520E5262F65058E9FC4CD4 ====


VA - Cyborgasm: Erotica In 3D Sound (1993) {Time Warner}