Subcategories

Elizabeth Zimmermann's Knitting Workshop [repost]

Posted By: house23
Elizabeth Zimmermann's Knitting Workshop [repost]

Elizabeth Zimmermann's Knitting Workshop
AVI | XviD 1046kbps | English | 624x478 | 29.97fps | 6 hours | AC3 stereo 192kbps | 3.33 GB
Genre: Video Training

Part 1: Beginnings. Follow along as Elizabeth winds a center-pull ball of wool to begin your first project: a hat knit in the round…

Part 2: Intermediate. After completing the hat, you have learned enough basic technique to knit a seamless yoke sweater - discover how EPS (Elizabeth's Percentage System) can free you from patterns forever; then go on to make a color-patterned dropped-shoulder pullover.

Part 3: Master Classes. Elizabeth discusses and shows examples of traditional Fair Isle and Guernsey knitting as well as garter-stitch and lace; seven seamless shoulder shapings!


Format : AVI
Format/Info : Audio Video Interleave
File size : 1 004 MiB
Duration : 1h 52mn
Overall bit rate : 1 250 Kbps
Writing application : Lavf52.17.0
Video #0
ID : 0
Format : MPEG-4 Visual
Format profile : Simple@L3
Format settings, BVOP : No
Format settings, QPel : No
Format settings, GMC : No warppoints
Format settings, Matrix : Default (H.263)
Codec ID : XVID
Codec ID/Hint : XviD
Duration : 1h 52mn
Bit rate : 1 046 Kbps
Width : 624 pixels
Height : 478 pixels
Display aspect ratio : 4:3
Frame rate : 29.970 fps
Resolution : 24 bits
Colorimetry : 4:2:0
Scan type : Progressive
Bits/(Pixel*Frame) : 0.117
Stream size : 840 MiB (84%)
Writing library : XviD 1.1.2 (UTC 2006-11-01)
Audio #1
ID : 1
Format : AC-3
Format/Info : Audio Coding 3
Codec ID : 2000
Duration : 1h 52mn
Bit rate mode : Constant
Bit rate : 192 Kbps
Channel(s) : 2 channels
Channel positions : L R
Sampling rate : 48.0 KHz
Stream size : 154 MiB (15%)
Alignment : Aligned on interleaves
Interleave, duration : 32 ms (0.96 video frame)
Interleave, preload duration : 32 ms


Elizabeth Zimmermann's Knitting Workshop [repost]

Elizabeth Zimmermann's Knitting Workshop [repost]

Elizabeth Zimmermann's Knitting Workshop [repost]

Elizabeth Zimmermann's Knitting Workshop [repost]


No mirrors please