Subcategories

Gumroad - Painting Tutorial - Magic: The Gathering Manila Grand Prix Playmat

Posted By: house23
Gumroad - Painting Tutorial - Magic: The Gathering Manila Grand Prix Playmat

Gumroad - Painting Tutorial - Magic: The Gathering Manila Grand Prix Playmat
MP4 | AVC 1033kbps | English | 1280x800 | 24fps | 3 hours | AAC stereo 158kbps | 2.9 GB
Genre: Video Training

3 hours of full resolution video with audio commentary, It covers the entire process from ideation to drawing, painting and final adjustments.

Inside:
Full resolution photoshop files
Brushes


Format : MPEG-4
Format profile : Base Media / Version 2
Codec ID : mp42
File size : 530 MiB
Duration : 1h 1mn
Overall bit rate mode : Variable
Overall bit rate : 1 198 Kbps
Encoded date : UTC 2014-10-14 13:42:06
Tagged date : UTC 2014-10-14 13:42:06
©TIM : 00:00:00:00
©TSC : 24
©TSZ : 1
Video #1
ID : 1
Format : AVC
Format/Info : Advanced Video Codec
Format profile : High@L5.1
Format settings, CABAC : Yes
Format settings, ReFrames : 3 frames
Format settings, GOP : M=3, N=33
Codec ID : avc1
Codec ID/Info : Advanced Video Coding
Duration : 1h 1mn
Bit rate : 1 033 Kbps
Width : 1 280 pixels
Height : 800 pixels
Display aspect ratio : 16:10
Frame rate mode : Constant
Frame rate : 24.000 fps
Standard : NTSC
Color space : YUV
Chroma subsampling : 4:2:0
Bit depth : 8 bits
Scan type : Progressive
Bits/(Pixel*Frame) : 0.042
Stream size : 457 MiB (86%)
Language : English
Encoded date : UTC 2014-10-14 13:42:06
Tagged date : UTC 2014-10-14 13:42:06
Color primaries : BT.709
Transfer characteristics : BT.709
Matrix coefficients : BT.709
Audio #2
ID : 2
Format : AAC
Format/Info : Advanced Audio Codec
Format profile : LC
Codec ID : 40
Duration : 1h 1mn
Source duration : 1h 1mn
Bit rate mode : Variable
Bit rate : 158 Kbps
Maximum bit rate : 260 Kbps
Channel(s) : 2 channels
Channel positions : Front: L R
Sampling rate : 44.1 KHz
Compression mode : Lossy
Stream size : 69.7 MiB (13%)
Source stream size : 69.7 MiB (13%)
Language : English
Encoded date : UTC 2014-10-14 13:42:06
Tagged date : UTC 2014-10-14 13:42:06


Gumroad - Painting Tutorial - Magic: The Gathering Manila Grand Prix Playmat

Gumroad - Painting Tutorial - Magic: The Gathering Manila Grand Prix Playmat

Gumroad - Painting Tutorial - Magic: The Gathering Manila Grand Prix Playmat


No mirrors please