Subcategories

Hacking Academy: Monitoring Transmitted Data

Posted By: Polik88
Hacking Academy: Monitoring Transmitted Data

Hacking Academy: Monitoring Transmitted Data
English | MP4 | 852x480 | AVC 3503 Kbps 25.000 fps | AAC 50.3 Kbps 48.0 khz | 1h 7mn | 340 MB
Genre: Video Training

Hacking Academy: Monitoring Transmitted Data We are introducing you one of the most insteresting module from IT Security Academy Beginner course. During one hour you will learn how to intercept data in your network. You will be shocked how many information you can read and monitor. Some of theme are even no encrypted - sent in plain text. Learn how to intercept data in networks Monitor transmitted data Detect intrusions See what is going on in your network Learn how to read and filter data in Wireshark Hacking hobbist IT security beginners and professionals Everyone interested in technologies
Section 1: Introduction
Lecture 1 Introduction to Monitoring Transmitted Data 01:06
See what you will learn in this module.

Section 2: Monitoring Transmitted Data
Lecture 2 Monitoring Transmitted Data - Basic informations 08:03
Lecture 3 Intrusion detection systems 07:43
Lecture 4 Why are firewalls and NDIS not enough? 05:41
Lecture 5 Wireshark - Introduction to network analysis 06:29
Lecture 6 How to use Wireshark? 08:27
Lecture 7 Analyzing Captured data 05:43
Lecture 8 How to analyze telnet protocol? 08:09
Lecture 9 Intrusion detection 07:48
Lecture 10 Scanning computers 07:47
Lecture 11 Monitoring Transmitted Data - Notes 28 pages
Download and read notes.

Section 3: IT Security Academy - learn more
Lecture 12 IT Sec Academy: Beginner Training 1 page
Check also our IT Security Beginner Training on Udemy.
Coupon code inside.

Lecture 13 IT Sec Academy: Professional Training 1 page
Check also our IT Security Professional Training on Udemy.
Coupon code inside.

Lecture 14 See how the IT Security Academy certificate looks like 1 page

General
Complete name : Lecture 1 Introduction to Monitoring Transmitted Data.mp4
Format : MPEG-4
Format profile : Base Media
Codec ID : isom
File size : 6.18 MiB
Duration : 1mn 6s
Overall bit rate mode : Variable
Overall bit rate : 774 Kbps
Encoded date : UTC 2015-05-26 12:40:15
Tagged date : UTC 2015-05-26 12:40:15

Video
ID : 1
Format : AVC
Format/Info : Advanced Video Codec
Format profile : Baseline@L3.1
Format settings, CABAC : No
Format settings, ReFrames : 3 frames
Format settings, GOP : M=1, N=75
Codec ID : avc1
Codec ID/Info : Advanced Video Coding
Duration : 1mn 6s
Bit rate : 722 Kbps
Maximum bit rate : 3 503 Kbps
Width : 1 280 pixels
Height : 720 pixels
Display aspect ratio : 16:9
Frame rate mode : Constant
Frame rate : 25.000 fps
Color space : YUV
Chroma subsampling : 4:2:0
Bit depth : 8 bits
Scan type : Progressive
Bits/(Pixel*Frame) : 0.031
Stream size : 5.76 MiB (93%)
Writing library : Zencoder Video Encoding System
Encoded date : UTC 2015-05-26 12:40:06
Tagged date : UTC 2015-05-26 12:40:15
Color primaries : BT.709
Transfer characteristics : BT.709
Matrix coefficients : BT.709

Audio
ID : 2
Format : AAC
Format/Info : Advanced Audio Codec
Format profile : LC
Codec ID : 40
Duration : 1mn 6s
Bit rate mode : Variable
Bit rate : 50.3 Kbps
Maximum bit rate : 65.6 Kbps
Channel(s) : 2 channels
Channel positions : Front: L R
Sampling rate : 48.0 KHz
Compression mode : Lossy
Stream size : 412 KiB (6%)
Encoded date : UTC 2015-05-26 12:40:15
Tagged date : UTC 2015-05-26 12:40:15

Screenshots

Hacking Academy: Monitoring Transmitted Data

Hacking Academy: Monitoring Transmitted Data

Hacking Academy: Monitoring Transmitted Data

no mirrors please.
Visit Polik88 Blog Here
no password

Hacking Academy: Monitoring Transmitted Data