Subcategories

MedStudy - 2010 Video Board Review of Internal Medicine (12 DVD's)

Posted By: ParRus
MedStudy - 2010 Video Board Review of Internal Medicine (12 DVD's)

MedStudy - 2010 Video Board Review of Internal Medicine
12xDVDRip | English | AVI | 640 x 480 | XviD ~458 kbps | 29.970 fps
MP3 | 128 Kbps | 44.1 KHz | 2 channels | ~63 hours | 16.08 GB
Genre: eLearning Video / Health, Medicine

The MedStudy Video Board Review brings you over 63 hours of presentations recorded at the 2010 MedStudy Intensive Board Review of Internal Medicine. It consists of 19 DVDs in convenient carrying case, plus a 700+ page syllabus. When and where and how often you want Sit down at your convenience and view over 63 hours of expert lectures on the subjects you’ll encounter on your Boards. Study 100 practice test questions and answers in the accompanying syllabus. Here’s your take-home Intensive on DVD.
Next best thing to being there
These DVDs bring you not only the expert lectures of Intensive speakers but also the hundreds of photos, tables, diagrams and medical images the speakers use to clarify their subject matter. Picture-in-picture view means you see the speaker and projected images on screen together. It’s as live a presentation as you can get on disc! And because you own it, you can watch as much as you want, as many times as you want, anywhere you want.
Go to the topics you want – fast!
Each DVD presents a detailed menu of topics covered, allowing you to go directly to where each begins on the disc. No guesswork. No tedious play-through to find topics.
The perfect syllabus – usable and relevant.
You also receive a syllabus of more than 700 pages, meticulously compiled to provide comprehensive outlines of speakers’ presentations and a printout of virtually every text, diagram and table slide they use. This is an excellent refresher on the material and a handy place to make notes as you watch the DVDs. The syllabus also contains all 100 Board-simulation Practice Test questions and answers from the Intensive – a terrific mini-rehearsal for your Boards!

MedStudy - 2010 Video Board Review of Internal Medicine (12 DVD's)


Topics and speakers in the MedStudy Video Board Review of Internal Medicine

Gastroenterology
James Smith, MD
Director, GI Fellowship Training Program
Ochsner Clinic (New Orleans, LA)

General Internal Medicine
Doug Paauw, MD
Professor of Medicine;
Rathmann Family Foundation,
Endowed Chair in Patient Centered Clinical Education;
Head, Section of GIM,
Dept. of Medicine, University of Washington School of Medicine
(Seattle, WA)

Rheumatology
Seth Mark Berney, MD
Professor of Medicine;
Chief, Section of Rheumatology;
Director, Center of Excellence for Arthritis and Rheumatology,
LSU Health Sciences Center
(Shreveport, LA )

Dermatology
Kimberly Salkey, MD
Assistant Professor, Department of Dermatology
Eastern Virginia Medical School (Norfolk, VA)

Pulmonary Medicine
Thomas Roy, MD
Professor and Chief, Pulmonary & Critical Care Medicine
James H. Quillen College of Medicine
(Johnson City, TN)

Hematology
Stephanie Elkins, MD
Professor of Medicine,
University of Mississippi Medical Center
(Jackson, MS)

Endocrinology
Robert J. Richards, MD
Assistant Professor of Medicine,
Dept. of Medicine, Section of Endocrinology,
LSU Health Sciences Center, (New Orleans, LA)

Cardiology
David R. Ferry, MD, FACC
Chief, Cardiology Section,
Loma Linda VA Health Care System,
Associate Professor of Medicine,
Loma Linda University School of Medicine,
(Loma Linda, CA)

Nephrology
N. Kevin Krane, MD
Vice Dean, Academic Affairs,
Tulane University School of Medicine
(New Orleans, LA)

Oncology
Stephanie Elkins, MD
Professor of Medicine,
University of Mississippi Medical Center
(Jackson, MS)

Neurology
Steve Karceski, MD
Associate Clinical Professor of Neurology
Columbia Comprehensive Epilepsy Center
The New York Presbyterian Hospital
Columbia University
(New York, NY)

Infectious Disease
J. Thomas Cross, Jr., MD, MPH
Vice President, Education, MedStudy
(Colorado Springs, CO)

and You can look my other last: Medicine-posts

General
Complete name : 1.avi
Format : AVI
Format/Info : Audio Video Interleave
File size : 935 MiB
Duration : 3h 38mn
Overall bit rate : 599 Kbps

Video
ID : 0
Format : MPEG-4 Visual
Format profile : Advanced Simple@L4
Format settings, BVOP : No
Format settings, QPel : No
Format settings, GMC : No warppoints
Format settings, Matrix : Default (H.263)
Codec ID : XVID
Codec ID/Hint : XviD
Duration : 3h 38mn
Bit rate : 458 Kbps
Width : 640 pixels
Height : 480 pixels
Display aspect ratio : 4:3
Frame rate : 29.970 fps
Color space : YUV
Chroma subsampling : 4:2:0
Bit depth : 8 bits
Scan type : Progressive
Compression mode : Lossy
Bits/(Pixel*Frame) : 0.050
Stream size : 715 MiB (76%)
Writing library : Magic0432

Audio
ID : 1
Format : MPEG Audio
Format version : Version 1
Format profile : Layer 3
Mode : Joint stereo
Mode extension : MS Stereo
Codec ID : 55
Codec ID/Hint : MP3
Duration : 3h 38mn
Bit rate mode : Constant
Bit rate : 128 Kbps
Channel(s) : 2 channels
Sampling rate : 44.1 KHz
Compression mode : Lossy
Stream size : 200 MiB (21%)
Alignment : Aligned on interleaves
Interleave, duration : 26 ms (0.78 video frame)
Writing library : LAME3.97
Screenshots

MedStudy - 2010 Video Board Review of Internal Medicine (12 DVD's)

MedStudy - 2010 Video Board Review of Internal Medicine (12 DVD's)

MedStudy - 2010 Video Board Review of Internal Medicine (12 DVD's)

MedStudy - 2010 Video Board Review of Internal Medicine (12 DVD's)

MedStudy - 2010 Video Board Review of Internal Medicine (12 DVD's)

MedStudy - 2010 Video Board Review of Internal Medicine (12 DVD's)

MedStudy - 2010 Video Board Review of Internal Medicine (12 DVD's)

MedStudy - 2010 Video Board Review of Internal Medicine (12 DVD's)

Exclusive eLearning Videos ParRus-blogadd to bookmarks

MedStudy - 2010 Video Board Review of Internal Medicine (12 DVD's)