Ask Video - Native Instruments 215: NI Body Parts The Finger and Mouth

Posted By: ParRus
Ask Video - Native Instruments 215: NI Body Parts The Finger and Mouth

Ask Video - Native Instruments 215: NI Body Parts The Finger and Mouth
English | MP4 | 1280 x 720 | AVC ~249 Kbps | 30 fps
AAC | 96 kbps | 44.1 KHz | 2 channels | 01:47:00 | 228 MB
Genre: Video Tutorial / Sound Processing (2013)

Native Instruments loves body parts – and so does GW Childs – so that’s why we asked him to create a course on The Finger & The Mouth! Learn to get the most out of your NI Body Parts in this tasty, 40 tutorial, 2-for-1 course.
The Finger, designed by Tim Exile, is Native Instruments' intense, point-'n-play FX processor. Based on Reaktor technology, this plugin brings a wide array of FX and modulations right to your finger tips – all in realtime! The Mouth, NI’s vocoder on steroids by the same designer, turns any audio clip: drums, sound effects or whatever, into a mess of mashed-up melodic and harmonic phrases.

In this doctoral course GW reveals the inner workings of both of these NI synths. You learn their basic functionality and controls. But then, like the sonic surgeon he is, Dr. Childs gives you the biological breakdown of the massive features and effects that are locked up in these amazingly creative expressive body parts!
So get your digital digits ready to dance and vibrate up your virtual vocal chords as you dive into the the depths of these amazing Reaktor instruments. Turn down the lights, sit back and get ready to master your Body Parts in this incredibly deep 40-tutorial collection!

Content:
01. Introduction (02:10)
02. Setup Reaktor FX (01:54)
03. The Finger in Action (01:54)
04. Assigning Keys to Effects (01:44)
05. Twisters (02:29)
06. Velocity (02:21)
07. Mod Wheel (01:59)
08. Envelope (03:54)
09. Copy Past INIT (02:07)
10. First Patch (01:25)
11. Looping 1 (03:55)
12. Envelope Loop (03:02)
13. Loop forward Backward (02:25)
14. Global Envelope (02:07)
15. Wavetables (03:16)
16. Filter Based Effects (03:52)
17. Delay Based Effects (04:10)
18. Granular Effects (03:22)
19. Waveshaping Effects (04:12)
20. Modulation (02:36)
21. Conclusion Finger (01:50)
22. The Mouth Intro (01:55)
23. Mixer (01:52)
24. Sub Presets- FX (02:40)
25. Vocoder and Sub Presets (04:07)
26. Pitch Mode (03:11)
27. MIDI Control (01:43)
28. Harmony Section (02:39)
29. Synth and Sub Preset (02:28)
30. Performance Controls (04:43)
31. Input Sub Presets (02:59)
32. Harmony Performance Controls (02:13)
33. Harmonies on Separate Tracks (01:35)
34. MIDI Out from the Mouth (01:45)
35. Rhythm Device and Beat Mode (02:19)
36. Mouth Synth 1 (02:53)
37. Synth 2 (01:51)
38. Mouth Beat Box (03:15)
39. Mouth Clips (04:36)
40. The Mouth Conclusion (01:22)

More Info: www.askvideo.com/course/native-instruments-body-parts-the-finger-and-mouth

General
Complete name : 15. Wavetables.mp4
Format : MPEG-4
Format profile : Base Media / Version 2
Codec ID : mp42
File size : 8.22 MiB
Duration : 3mn 16s
Overall bit rate : 351 Kbps
Encoded date : UTC 2013-05-27 20:54:38
Tagged date : UTC 2013-05-28 03:59:24
Writing application : Sorenson Squeeze
Comment : Encoded by
Video #2
ID : 2
Format : AVC
Format/Info : Advanced Video Codec
Format profile : Main@L3.1
Format settings, CABAC : Yes
Format settings, ReFrames : 4 frames
Codec ID : avc1
Codec ID/Info : Advanced Video Coding
Duration : 3mn 16s
Bit rate mode : Variable
Bit rate : 249 Kbps
Width : 1 280 pixels
Height : 720 pixels
Display aspect ratio : 16:9
Frame rate mode : Constant
Frame rate : 30.000 fps
Color space : YUV
Chroma subsampling : 4:2:0
Bit depth : 8 bits
Scan type : Progressive
Bits/(Pixel*Frame) : 0.009
Stream size : 5.83 MiB (71%)
Writing library : x264 core 115
Encoding settings : cabac=1 / ref=3 / deblock=1:0:0 / analyse=0x1:0x111 / me=hex / subme=7 / psy=1 / psy_rd=1.00:0.00 / mixed_ref=1 / me_range=16 / chroma_me=1 / trellis=1 / 8x8dct=0 / cqm=0 / deadzone=21,11 / fast_pskip=1 / chroma_qp_offset=-2 / threads=1 / sliced_threads=0 / nr=0 / decimate=1 / interlaced=0 / bluray_compat=0 / constrained_intra=0 / bframes=3 / b_pyramid=2 / b_adapt=1 / b_bias=0 / direct=1 / weightb=1 / open_gop=0 / weightp=2 / keyint=300 / keyint_min=30 / scenecut=45 / intra_refresh=0 / rc_lookahead=40 / rc=crf / mbtree=1 / crf=23.0 / qcomp=0.60 / qpmin=0 / qpmax=69 / qpstep=4 / ip_ratio=1.40 / aq=1:1.00
Encoded date : UTC 2013-05-27 20:54:38
Tagged date : UTC 2013-05-27 20:54:38
Audio #1
ID : 1
Format : AAC
Format/Info : Advanced Audio Codec
Format profile : LC
Codec ID : 40
Duration : 3mn 15s
Bit rate mode : Constant
Bit rate : 96.0 Kbps
Channel(s) : 2 channels
Channel positions : Front: L R
Sampling rate : 44.1 KHz
Compression mode : Lossy
Stream size : 2.24 MiB (27%)
Encoded date : UTC 2013-05-27 20:54:38
Tagged date : UTC 2013-05-27 20:54:38
Screenshots

Ask Video - Native Instruments 215: NI Body Parts The Finger and Mouth

Ask Video - Native Instruments 215: NI Body Parts The Finger and Mouth

Ask Video - Native Instruments 215: NI Body Parts The Finger and Mouth

For more, Visit my AH-blog

Ask Video - Native Instruments 215: NI Body Parts The Finger and Mouth