Subcategories

Nick Mason - Inside Out: A Personal History Of Pink Floyd (audiobook) (3CD) (2005) **[RE-UP]**

Posted By: TestTickles
Nick Mason - Inside Out: A Personal History Of Pink Floyd (audiobook) (3CD) (2005) **[RE-UP]**

Nick Mason. Inside Out: A Personal History Of Pink Floyd (audiobook) (3CD) (2005)
English | Publisher: Orion | 2005 | ISBN: 075287327x
FLAC with CUE and log | EAC rip | scans | 743 mb
MP3 @ 320kbps | 3:17:33 | 626 mb

Inside Out: A Personal History Of Pink Floyd is the audiobook version of the book about and written by Pink Floyd drummer Nick Mason, as spoken by the author. 3CD's, abridged.

Nick Mason - Inside Out: A Personal History Of Pink Floyd (audiobook) (3CD) (2005) **[RE-UP]**

DISC 1
01. Poly Days (Part 1)
02. Poly Days (Part 2)
03. Poly Days (Part 3)
04. Poly Days (Part 4)
05. Poly Days (Part 5)
06. Poly Days (Part 6)
07. Going Underground (Part 1)
08. Going Underground (Part 2)
09. Going Underground (Part 3)
10. Freak Out Schmeak Out (Part 1)
11. Freak Out Schmeak Out (Part 2)
12. Freak Out Schmeak Out (Part 3)
13. Freak Out Schmeak Out (Part 4)
14. Freak Out Schmeak Out (Part 5)

DISC 2
01. The Sum Of The Parts 1
02. The Sum Of The Parts 2
03. The Sum Of The Parts 3
04. Change Of Tempo 1
05. Change Of Tempo 2
06. There Is No Dark Side 1
07. There Is No Dark Side 2
08. There Is No Dark Side 3
09. There Is No Dark Side 4
10. Hard Labour 1
11. Hard Labour 2
12. The Balloon Goes Up 1
13. The Balloon Goes Up 2

DISC 3
01. Writing On The Wall (Part 1)
02. Writing On The Wall (Part 2)
03. Writing On The Wall (Part 3)
04. Communications Feature (Part 1)
05. Communications Feature (Part 2)
06. Restart… And Restoration (Part 1)
07. Restart… And Restoration (Part 2)
08. Restart… And Restoration (Part 3)
09. Wiser After The Event (Part 1)
10. Wiser After The Event (Part 2)
11. Postscript (Part 1)
12. Postscript (Part 2)
13. Postscript (Part 3)
14. Postscript (Part 4)

Exact Audio Copy V0.99 prebeta 4 from 23. January 2008

EAC extraction logfile from 21. April 2009, 17:15

Nick Mason / Inside Out (Disc 1)

Used drive : TSSTcorpDVD+-RW TS-H653B Adapter: 2 ID: 0

Read mode : Secure
Utilize accurate stream : Yes
Defeat audio cache : Yes
Make use of C2 pointers : No

Read offset correction : 6
Overread into Lead-In and Lead-Out : No
Fill up missing offset samples with silence : Yes
Delete leading and trailing silent blocks : No
Null samples used in CRC calculations : Yes
Used interface : Native Win32 interface for Win NT & 2000
Gap handling : Appended to previous track

Used output format : Internal WAV Routines
Sample format : 44.100 Hz; 16 Bit; Stereo


TOC of the extracted CD

Track | Start | Length | Start sector | End sector
––––––––––––––––––––––––––––-
1 | 0:00.00 | 4:49.58 | 0 | 21732
2 | 4:49.58 | 6:21.27 | 21733 | 50334
3 | 11:11.10 | 3:52.16 | 50335 | 67750
4 | 15:03.26 | 5:03.56 | 67751 | 90531
5 | 20:07.07 | 2:01.71 | 90532 | 99677
6 | 22:09.03 | 4:10.01 | 99678 | 118428
7 | 26:19.04 | 5:16.63 | 118429 | 142191
8 | 31:35.67 | 5:48.10 | 142192 | 168301
9 | 37:24.02 | 2:54.04 | 168302 | 181355
10 | 40:18.06 | 5:19.73 | 181356 | 205353
11 | 45:38.04 | 5:16.42 | 205354 | 229095
12 | 50:54.46 | 6:42.65 | 229096 | 259310
13 | 57:37.36 | 3:29.72 | 259311 | 275057
14 | 61:07.33 | 4:15.50 | 275058 | 294232


Track 1

Filename C:\FLAC\Nick Mason - Inside Out, A Personal History Of Pink Floyd (Audiobook) (3CD) (2005) [FLAC]\Disc 1\01 - Poly Days (Part 1).wav

Pre-gap length 0:00:02.00

Peak level 52.8 %
Track quality 100.0 %
Test CRC 0ACBB9A1
Copy CRC 0ACBB9A1
Track not present in AccurateRip database
Copy OK

Track 2

Filename C:\FLAC\Nick Mason - Inside Out, A Personal History Of Pink Floyd (Audiobook) (3CD) (2005) [FLAC]\Disc 1\02 - Poly Days (Part 2).wav

Peak level 56.1 %
Track quality 100.0 %
Test CRC CF635C26
Copy CRC CF635C26
Track not present in AccurateRip database
Copy OK

Track 3

Filename C:\FLAC\Nick Mason - Inside Out, A Personal History Of Pink Floyd (Audiobook) (3CD) (2005) [FLAC]\Disc 1\03 - Poly Days (Part 3).wav

Peak level 54.4 %
Track quality 100.0 %
Test CRC 8F27055C
Copy CRC 8F27055C
Track not present in AccurateRip database
Copy OK

Track 4

Filename C:\FLAC\Nick Mason - Inside Out, A Personal History Of Pink Floyd (Audiobook) (3CD) (2005) [FLAC]\Disc 1\04 - Poly Days (Part 4).wav

Peak level 49.8 %
Track quality 100.0 %
Test CRC ACB8E893
Copy CRC ACB8E893
Track not present in AccurateRip database
Copy OK

Track 5

Filename C:\FLAC\Nick Mason - Inside Out, A Personal History Of Pink Floyd (Audiobook) (3CD) (2005) [FLAC]\Disc 1\05 - Poly Days (Part 5).wav

Peak level 50.1 %
Track quality 100.0 %
Test CRC 6518713D
Copy CRC 6518713D
Track not present in AccurateRip database
Copy OK

Track 6

Filename C:\FLAC\Nick Mason - Inside Out, A Personal History Of Pink Floyd (Audiobook) (3CD) (2005) [FLAC]\Disc 1\06 - Poly Days (Part 6).wav

Peak level 50.2 %
Track quality 100.0 %
Test CRC 4C105537
Copy CRC 4C105537
Track not present in AccurateRip database
Copy OK

Track 7

Filename C:\FLAC\Nick Mason - Inside Out, A Personal History Of Pink Floyd (Audiobook) (3CD) (2005) [FLAC]\Disc 1\07 - Going Underground (Part 1).wav

Peak level 49.6 %
Track quality 100.0 %
Test CRC 0F08F4F9
Copy CRC 0F08F4F9
Track not present in AccurateRip database
Copy OK

Track 8

Filename C:\FLAC\Nick Mason - Inside Out, A Personal History Of Pink Floyd (Audiobook) (3CD) (2005) [FLAC]\Disc 1\08 - Going Underground (Part 2).wav

Peak level 48.8 %
Track quality 100.0 %
Test CRC 465B5C72
Copy CRC 465B5C72
Track not present in AccurateRip database
Copy OK

Track 9

Filename C:\FLAC\Nick Mason - Inside Out, A Personal History Of Pink Floyd (Audiobook) (3CD) (2005) [FLAC]\Disc 1\09 - Going Underground (Part 3).wav

Peak level 48.1 %
Track quality 100.0 %
Test CRC 8E982AD1
Copy CRC 8E982AD1
Track not present in AccurateRip database
Copy OK

Track 10

Filename C:\FLAC\Nick Mason - Inside Out, A Personal History Of Pink Floyd (Audiobook) (3CD) (2005) [FLAC]\Disc 1\10 - Freak Out Schmeak Out (Part 1).wav

Peak level 51.8 %
Track quality 100.0 %
Test CRC 746728F4
Copy CRC 746728F4
Track not present in AccurateRip database
Copy OK

Track 11

Filename C:\FLAC\Nick Mason - Inside Out, A Personal History Of Pink Floyd (Audiobook) (3CD) (2005) [FLAC]\Disc 1\11 - Freak Out Schmeak Out (Part 2).wav

Peak level 48.2 %
Track quality 100.0 %
Test CRC 380E1EA4
Copy CRC 380E1EA4
Track not present in AccurateRip database
Copy OK

Track 12

Filename C:\FLAC\Nick Mason - Inside Out, A Personal History Of Pink Floyd (Audiobook) (3CD) (2005) [FLAC]\Disc 1\12 - Freak Out Schmeak Out (Part 3).wav

Peak level 48.3 %
Track quality 100.0 %
Test CRC 75800859
Copy CRC 75800859
Track not present in AccurateRip database
Copy OK

Track 13

Filename C:\FLAC\Nick Mason - Inside Out, A Personal History Of Pink Floyd (Audiobook) (3CD) (2005) [FLAC]\Disc 1\13 - Freak Out Schmeak Out (Part 4).wav

Peak level 46.5 %
Track quality 100.0 %
Test CRC 25F7124E
Copy CRC 25F7124E
Track not present in AccurateRip database
Copy OK

Track 14

Filename C:\FLAC\Nick Mason - Inside Out, A Personal History Of Pink Floyd (Audiobook) (3CD) (2005) [FLAC]\Disc 1\14 - Freak Out Schmeak Out (Part 5).wav

Peak level 46.9 %
Track quality 100.0 %
Test CRC E1FFA6E6
Copy CRC E1FFA6E6
Track not present in AccurateRip database
Copy OK


None of the tracks are present in the AccurateRip database

No errors occurred

End of status report







Exact Audio Copy V0.99 prebeta 4 from 23. January 2008

EAC extraction logfile from 21. April 2009, 18:30

Nick Mason / Inside Out (Disc 2)

Used drive : TSSTcorpDVD+-RW TS-H653B Adapter: 2 ID: 0

Read mode : Secure
Utilize accurate stream : Yes
Defeat audio cache : Yes
Make use of C2 pointers : No

Read offset correction : 6
Overread into Lead-In and Lead-Out : No
Fill up missing offset samples with silence : Yes
Delete leading and trailing silent blocks : No
Null samples used in CRC calculations : Yes
Used interface : Native Win32 interface for Win NT & 2000
Gap handling : Appended to previous track

Used output format : Internal WAV Routines
Sample format : 44.100 Hz; 16 Bit; Stereo


TOC of the extracted CD

Track | Start | Length | Start sector | End sector
––––––––––––––––––––––––––––-
1 | 0:00.00 | 5:11.20 | 0 | 23344
2 | 5:11.20 | 5:51.05 | 23345 | 49674
3 | 11:02.25 | 4:06.25 | 49675 | 68149
4 | 15:08.50 | 6:51.44 | 68150 | 99018
5 | 22:00.19 | 4:05.54 | 99019 | 117447
6 | 26:05.73 | 3:20.48 | 117448 | 132495
7 | 29:26.46 | 5:46.72 | 132496 | 158517
8 | 35:13.43 | 4:55.70 | 158518 | 180712
9 | 40:09.38 | 4:47.58 | 180713 | 202295
10 | 44:57.21 | 5:58.02 | 202296 | 229147
11 | 50:55.23 | 3:39.06 | 229148 | 245578
12 | 54:34.29 | 6:31.53 | 245579 | 274956
13 | 61:06.07 | 4:23.09 | 274957 | 294690


Track 1

Filename C:\FLAC\Nick Mason - Inside Out, A Personal History Of Pink Floyd (Audiobook) (3CD) (2005) [FLAC]\Disc 2\01 - The Sum Of The Parts (Part 1).wav

Pre-gap length 0:00:02.00

Peak level 54.8 %
Track quality 100.0 %
Test CRC E7A6D7F4
Copy CRC E7A6D7F4
Track not present in AccurateRip database
Copy OK

Track 2

Filename C:\FLAC\Nick Mason - Inside Out, A Personal History Of Pink Floyd (Audiobook) (3CD) (2005) [FLAC]\Disc 2\02 - The Sum Of The Parts (Part 2).wav

Peak level 50.1 %
Track quality 100.0 %
Test CRC 92B23618
Copy CRC 92B23618
Track not present in AccurateRip database
Copy OK

Track 3

Filename C:\FLAC\Nick Mason - Inside Out, A Personal History Of Pink Floyd (Audiobook) (3CD) (2005) [FLAC]\Disc 2\03 - The Sum Of The Parts (Part 3).wav

Peak level 52.5 %
Track quality 100.0 %
Test CRC 6B01D306
Copy CRC 6B01D306
Track not present in AccurateRip database
Copy OK

Track 4

Filename C:\FLAC\Nick Mason - Inside Out, A Personal History Of Pink Floyd (Audiobook) (3CD) (2005) [FLAC]\Disc 2\04 - Change Of Tempo (Part 1).wav

Peak level 56.4 %
Track quality 100.0 %
Test CRC 37A9467D
Copy CRC 37A9467D
Track not present in AccurateRip database
Copy OK

Track 5

Filename C:\FLAC\Nick Mason - Inside Out, A Personal History Of Pink Floyd (Audiobook) (3CD) (2005) [FLAC]\Disc 2\05 - Change Of Tempo (Part 2).wav

Peak level 51.9 %
Track quality 99.9 %
Test CRC AD2BA85C
Copy CRC AD2BA85C
Track not present in AccurateRip database
Copy OK

Track 6

Filename C:\FLAC\Nick Mason - Inside Out, A Personal History Of Pink Floyd (Audiobook) (3CD) (2005) [FLAC]\Disc 2\06 - There Is No Dark Side (Part 1).wav

Peak level 49.4 %
Track quality 100.0 %
Test CRC B84D94C6
Copy CRC B84D94C6
Track not present in AccurateRip database
Copy OK

Track 7

Filename C:\FLAC\Nick Mason - Inside Out, A Personal History Of Pink Floyd (Audiobook) (3CD) (2005) [FLAC]\Disc 2\07 - There Is No Dark Side (Part 2).wav

Peak level 48.2 %
Track quality 100.0 %
Test CRC E2DE4F3A
Copy CRC E2DE4F3A
Track not present in AccurateRip database
Copy OK

Track 8

Filename C:\FLAC\Nick Mason - Inside Out, A Personal History Of Pink Floyd (Audiobook) (3CD) (2005) [FLAC]\Disc 2\08 - There Is No Dark Side (Part 3).wav

Peak level 47.7 %
Track quality 100.0 %
Test CRC 8326C30C
Copy CRC 8326C30C
Track not present in AccurateRip database
Copy OK

Track 9

Filename C:\FLAC\Nick Mason - Inside Out, A Personal History Of Pink Floyd (Audiobook) (3CD) (2005) [FLAC]\Disc 2\09 - There Is No Dark Side (Part 4).wav

Peak level 48.1 %
Track quality 100.0 %
Test CRC 336970BF
Copy CRC 336970BF
Track not present in AccurateRip database
Copy OK

Track 10

Filename C:\FLAC\Nick Mason - Inside Out, A Personal History Of Pink Floyd (Audiobook) (3CD) (2005) [FLAC]\Disc 2\10 - Hard Labour (Part 1).wav

Peak level 49.4 %
Track quality 100.0 %
Test CRC 77BA5C6E
Copy CRC 77BA5C6E
Track not present in AccurateRip database
Copy OK

Track 11

Filename C:\FLAC\Nick Mason - Inside Out, A Personal History Of Pink Floyd (Audiobook) (3CD) (2005) [FLAC]\Disc 2\11 - Hard Labour (Part 2).wav

Peak level 49.6 %
Track quality 100.0 %
Test CRC D5601F48
Copy CRC D5601F48
Track not present in AccurateRip database
Copy OK

Track 12

Filename C:\FLAC\Nick Mason - Inside Out, A Personal History Of Pink Floyd (Audiobook) (3CD) (2005) [FLAC]\Disc 2\12 - The Balloon Goes Up (Part 1).wav

Peak level 59.3 %
Track quality 100.0 %
Test CRC B858FCA1
Copy CRC B858FCA1
Track not present in AccurateRip database
Copy OK

Track 13

Filename C:\FLAC\Nick Mason - Inside Out, A Personal History Of Pink Floyd (Audiobook) (3CD) (2005) [FLAC]\Disc 2\13 - The Balloon Goes Up (Part 2).wav

Peak level 52.2 %
Track quality 100.0 %
Test CRC F5C7C2C2
Copy CRC F5C7C2C2
Track not present in AccurateRip database
Copy OK


None of the tracks are present in the AccurateRip database

No errors occurred

End of status report















Exact Audio Copy V0.99 prebeta 4 from 23. January 2008

EAC extraction logfile from 21. April 2009, 19:56

Nick Mason / Inside Out (Disc 3)

Used drive : TSSTcorpDVD+-RW TS-H653B Adapter: 2 ID: 0

Read mode : Secure
Utilize accurate stream : Yes
Defeat audio cache : Yes
Make use of C2 pointers : No

Read offset correction : 6
Overread into Lead-In and Lead-Out : No
Fill up missing offset samples with silence : Yes
Delete leading and trailing silent blocks : No
Null samples used in CRC calculations : Yes
Used interface : Native Win32 interface for Win NT & 2000
Gap handling : Appended to previous track

Used output format : Internal WAV Routines
Sample format : 44.100 Hz; 16 Bit; Stereo


TOC of the extracted CD

Track | Start | Length | Start sector | End sector
––––––––––––––––––––––––––––-
1 | 0:00.00 | 6:11.11 | 0 | 27835
2 | 6:11.11 | 4:51.68 | 27836 | 49728
3 | 11:03.04 | 7:26.59 | 49729 | 83237
4 | 18:29.63 | 4:34.27 | 83238 | 103814
5 | 23:04.15 | 4:03.38 | 103815 | 122077
6 | 27:07.53 | 5:42.14 | 122078 | 147741
7 | 32:49.67 | 3:29.16 | 147742 | 163432
8 | 36:19.08 | 4:51.25 | 163433 | 185282
9 | 41:10.33 | 5:11.08 | 185283 | 208615
10 | 46:21.41 | 3:45.68 | 208616 | 225558
11 | 50:07.34 | 2:47.31 | 225559 | 238114
12 | 52:54.65 | 4:24.10 | 238115 | 257924
13 | 57:19.00 | 4:43.36 | 257925 | 279185
14 | 62:02.36 | 4:58.05 | 279186 | 301540


Track 1

Filename C:\FLAC\Nick Mason - Inside Out, A Personal History Of Pink Floyd (Audiobook) (3CD) (2005) [FLAC]\Disc 3\01 - Writing On The Wall (Part 1).wav

Pre-gap length 0:00:02.00

Peak level 51.3 %
Track quality 100.0 %
Test CRC 1A677610
Copy CRC 1A677610
Track not present in AccurateRip database
Copy OK

Track 2

Filename C:\FLAC\Nick Mason - Inside Out, A Personal History Of Pink Floyd (Audiobook) (3CD) (2005) [FLAC]\Disc 3\02 - Writing On The Wall (Part 2).wav

Peak level 47.0 %
Track quality 99.9 %
Test CRC 060C267B
Copy CRC 060C267B
Track not present in AccurateRip database
Copy OK

Track 3

Filename C:\FLAC\Nick Mason - Inside Out, A Personal History Of Pink Floyd (Audiobook) (3CD) (2005) [FLAC]\Disc 3\03 - Writing On The Wall (Part 3).wav

Peak level 49.5 %
Track quality 100.0 %
Test CRC 66404E56
Copy CRC 66404E56
Track not present in AccurateRip database
Copy OK

Track 4

Filename C:\FLAC\Nick Mason - Inside Out, A Personal History Of Pink Floyd (Audiobook) (3CD) (2005) [FLAC]\Disc 3\04 - Communications Feature (Part 1).wav

Peak level 45.5 %
Track quality 100.0 %
Test CRC ADBB631C
Copy CRC ADBB631C
Track not present in AccurateRip database
Copy OK

Track 5

Filename C:\FLAC\Nick Mason - Inside Out, A Personal History Of Pink Floyd (Audiobook) (3CD) (2005) [FLAC]\Disc 3\05 - Communications Feature (Part 2).wav

Peak level 53.1 %
Track quality 100.0 %
Test CRC 370B8303
Copy CRC 370B8303
Track not present in AccurateRip database
Copy OK

Track 6

Filename C:\FLAC\Nick Mason - Inside Out, A Personal History Of Pink Floyd (Audiobook) (3CD) (2005) [FLAC]\Disc 3\06 - Restart… And Restoration (Part 1).wav

Peak level 47.4 %
Track quality 100.0 %
Test CRC 2766BF7E
Copy CRC 2766BF7E
Track not present in AccurateRip database
Copy OK

Track 7

Filename C:\FLAC\Nick Mason - Inside Out, A Personal History Of Pink Floyd (Audiobook) (3CD) (2005) [FLAC]\Disc 3\07 - Restart… And Restoration (Part 2).wav

Peak level 47.4 %
Track quality 99.9 %
Test CRC 5F064827
Copy CRC 5F064827
Track not present in AccurateRip database
Copy OK

Track 8

Filename C:\FLAC\Nick Mason - Inside Out, A Personal History Of Pink Floyd (Audiobook) (3CD) (2005) [FLAC]\Disc 3\08 - Restart… And Restoration (Part 3).wav

Peak level 50.7 %
Track quality 100.0 %
Test CRC 43FE3734
Copy CRC 43FE3734
Track not present in AccurateRip database
Copy OK

Track 9

Filename C:\FLAC\Nick Mason - Inside Out, A Personal History Of Pink Floyd (Audiobook) (3CD) (2005) [FLAC]\Disc 3\09 - Wiser After The Event (Part 1).wav

Peak level 57.6 %
Track quality 100.0 %
Test CRC 1D34B429
Copy CRC 1D34B429
Track not present in AccurateRip database
Copy OK

Track 10

Filename C:\FLAC\Nick Mason - Inside Out, A Personal History Of Pink Floyd (Audiobook) (3CD) (2005) [FLAC]\Disc 3\10 - Wiser After The Event (Part 2).wav

Peak level 58.4 %
Track quality 100.0 %
Test CRC 64B3B52C
Copy CRC 64B3B52C
Track not present in AccurateRip database
Copy OK

Track 11

Filename C:\FLAC\Nick Mason - Inside Out, A Personal History Of Pink Floyd (Audiobook) (3CD) (2005) [FLAC]\Disc 3\11 - Postscript (Part 1).wav

Peak level 46.6 %
Track quality 100.0 %
Test CRC 19E1B031
Copy CRC 19E1B031
Track not present in AccurateRip database
Copy OK

Track 12

Filename C:\FLAC\Nick Mason - Inside Out, A Personal History Of Pink Floyd (Audiobook) (3CD) (2005) [FLAC]\Disc 3\12 - Postscript (Part 2).wav

Peak level 49.0 %
Track quality 100.0 %
Test CRC B5498E42
Copy CRC B5498E42
Track not present in AccurateRip database
Copy OK

Track 13

Filename C:\FLAC\Nick Mason - Inside Out, A Personal History Of Pink Floyd (Audiobook) (3CD) (2005) [FLAC]\Disc 3\13 - Postscript (Part 3).wav

Peak level 60.0 %
Track quality 100.0 %
Test CRC 28518C9E
Copy CRC 28518C9E
Track not present in AccurateRip database
Copy OK

Track 14

Filename C:\FLAC\Nick Mason - Inside Out, A Personal History Of Pink Floyd (Audiobook) (3CD) (2005) [FLAC]\Disc 3\14 - Postscript (Part 4).wav

Peak level 100.0 %
Track quality 100.0 %
Test CRC 9F747F6F
Copy CRC 9F747F6F
Track not present in AccurateRip database
Copy OK


None of the tracks are present in the AccurateRip database

No errors occurred

End of status report


Nick Mason - Inside Out: A Personal History Of Pink Floyd (audiobook) (3CD) (2005) **[RE-UP]**