Subcategories

Pluralsight - Video Courses Part 4 (Software Practices - WF)

Posted By: Polik88
Pluralsight - Video Courses Part 4 (Software Practices - WF)

Pluralsight - Video Courses Part 4 (Software Practices - WF)
English | WMV | 1024x768 | VC-1 126 Kbps 15.000 fps | WMA 128 Kbps 44.1 khz | 195h 03mn | 20.94 GB
Genre: Video Training

Collection of video courses from Pluralsight company (part 4 - categories Software Practices - WF).
Software Practices
Software Practices\Advanced Unit Testing\
Software Practices\Agile Team Practices with Scrum\
Software Practices\Automated Testing End to End\
Software Practices\Automated Testing for Fraidy Cats Like Me\
Software Practices\Brownfield Application Development\
Software Practices\Building Extensible Applications with MEF\
Software Practices\Continuous Integration\
Software Practices\Continuous Testing with NCrunch\
Software Practices\Design Patterns Library\
Software Practices\Getting Started With Jenkins Continuous Integration\
Software Practices\Inversion of Control\
Software Practices\Kanban Fundamentals\
Software Practices\RhinoMocks Fundamentals\
Software Practices\SOLID Principles of Object Oriented Design\
Software Practices\Test First Development - Part 1\
Software Practices\Test First Development - Part 2\

Source Control
Source Control\Introduction to SVN\
Source Control\Mercurial Fundamentals\
Source Control\Team Foundation Server 2010 Version Control\

SQL Server
SQL Server\Introduction to SQL Server\
SQL Server\Redgate SQL Prompt\
SQL Server\SQL Server - TSQL\
SQL Server\SQL Server Fundamentals\
SQL Server\SQL Server Management Studio by Example\
SQL Server\SQL Server Performance Indexing Basics\
SQL Server\SQL Server Questions and Answers\
SQL Server\Using XML and XQuery Effectively with SQL Server\

Unix
Unix\Introduction to the Bash Shell on Mac OS and Linux\

Visual Studio
Visual Studio\ALM with Team Foundation Server 2010\
Visual Studio\Customizing and Extending Visual Studio 2010 by Writing Code\
Visual Studio\Customizing and Extending Visual Studio 2010 Without Code\
Visual Studio\Introduction to MSBuild\
Visual Studio\Introduction to NuGet\
Visual Studio\Introduction to Visual Studio Tools for Office\
Visual Studio\Managing Work with Team Foundation Server 2010\
Visual Studio\ReSharper Fundamentals\
Visual Studio\Solution Modeling with UML in Visual Studio 2010\
Visual Studio\Team Foundation Build 2010 Introduction\
Visual Studio\Unit Testing with MSTest\
Visual Studio\Visual Studio 2010 Database Projects\
Visual Studio\Web Application Performance and Scalability Testing\

WCF
WCF\Understanding .NET and WCF Transactions\
WCF\WCF 4 New Features\
WCF\WCF Advanced Topics\
WCF\WCF by Example\
WCF\WCF Design Concepts\
WCF\WCF Extensibility\
WCF\WCF Fundamentals\
WCF\WCF REST Starter Kit by Example\
WCF\WCF REST Starter Kit HttpClient by Example\

WF
WF\Introduction to WF 4\
WF\WF 4 Custom Activity Development\
WF\WF4 Workflow Services Fundamentals\
WF\Windows Workflow 3.5 Advanced Topics\
WF\Windows Workflow 3.5 by Example\
WF\Windows Workflow 3.5 Fundamentals\

General
Complete name : 01 Introduction(1).mp4
Format : MPEG-4
Format profile : Base Media / Version 2
Codec ID : mp42
File size : 3.73 MiB
Duration : 2mn 1s
Overall bit rate mode : Variable
Overall bit rate : 257 Kbps
Encoded date : UTC 2013-04-12 21:41:45
Tagged date : UTC 2013-04-12 21:41:54
Writing application : HandBrake 0.9.8 2012071700

Video
ID : 1
Format : AVC
Format/Info : Advanced Video Codec
Format profile : Baseline@L3.1
Format settings, CABAC : No
Format settings, ReFrames : 2 frames
Codec ID : avc1
Codec ID/Info : Advanced Video Coding
Duration : 2mn 1s
Bit rate mode : Variable
Bit rate : 126 Kbps
Width : 1 024 pixels
Height : 768 pixels
Display aspect ratio : 4:3
Frame rate mode : Variable
Frame rate : 15.000 fps
Minimum frame rate : 14.925 fps
Maximum frame rate : 15.152 fps
Color space : YUV
Chroma subsampling : 4:2:0
Bit depth : 8 bits
Scan type : Progressive
Bits/(Pixel*Frame) : 0.011
Stream size : 1.83 MiB (49%)
Writing library : x264 core 120
Encoding settings : cabac=0 / ref=2 / deblock=1:0:0 / analyse=0x1:0x111 / me=umh / subme=6 / psy=1 / psy_rd=1.00:0.00 / mixed_ref=1 / me_range=16 / chroma_me=1 / trellis=0 / 8x8dct=0 / cqm=0 / deadzone=21,11 / fast_pskip=1 / chroma_qp_offset=-2 / threads=12 / sliced_threads=0 / nr=0 / decimate=1 / interlaced=0 / bluray_compat=0 / constrained_intra=0 / bframes=0 / weightp=0 / keyint=50 / keyint_min=15 / scenecut=40 / intra_refresh=0 / rc_lookahead=40 / rc=crf / mbtree=1 / crf=20.0 / qcomp=0.60 / qpmin=3 / qpmax=69 / qpstep=4 / ip_ratio=1.40 / aq=1:1.00
Encoded date : UTC 2013-04-12 21:41:45
Tagged date : UTC 2013-04-12 21:41:54
Color primaries : BT.709-5, BT.1361, IEC 61966-2-4, SMPTE RP177
Transfer characteristics : BT.709-5, BT.1361
Matrix coefficients : BT.709-5, BT.1361, IEC 61966-2-4 709, SMPTE RP177

Audio
ID : 2
Format : AAC
Format/Info : Advanced Audio Codec
Format profile : LC
Codec ID : 40
Duration : 2mn 1s
Bit rate mode : Variable
Bit rate : 128 Kbps
Maximum bit rate : 148 Kbps
Channel(s) : 2 channels
Channel positions : Front: L R
Sampling rate : 44.1 KHz
Compression mode : Lossy
Stream size : 1.86 MiB (50%)
Language : English
Encoded date : UTC 2013-04-12 21:41:45
Tagged date : UTC 2013-04-12 21:41:54

Screenshots

Pluralsight - Video Courses Part 4 (Software Practices - WF)

Pluralsight - Video Courses Part 4 (Software Practices - WF)

Pluralsight - Video Courses Part 4 (Software Practices - WF)

Pluralsight - Video Courses Part 4 (Software Practices - WF)

Other video courses Pluralsight:
Pluralsight - Video Courses Part 1
Pluralsight - Video Courses Part 3
Pluralsight - Video Courses Part 4
Pluralsight - Video Courses Part 5

no mirrors please, Follow The Rules
Visit Polik88 Blog Here
no password

Pluralsight - Video Courses Part 4 (Software Practices - WF)