Subcategories

Steve Latta - Fundamentals of Inlay: Making Ornamental Bandings (2010) (Repost)

Posted By: Polik88
Steve Latta - Fundamentals of Inlay: Making Ornamental Bandings (2010) (Repost)

Steve Latta - Fundamentals of Inlay: Making Ornamental Bandings (2010) (Repost)
DVDRip | English | AVI/DIVX 29.970 fps 778 Kbps | 496x336 | MP3 128 Kbps 48.0 khz | 1h 46mn | 702 MB
Genre: Woodworking

In this third Fundamentals of Inlay DVD, Steve Latta demonstrates in detail how to make your own ornamental bandings. Whether you are trying to reproduce an antique banding, working in a traditional motif or wanting to create something to accent a modern style, this DVD will show you how to go about it with a few simple tools and jigs.
General
Complete name : Steve Latta - Fundamentals of Inlay Making Ornamental Bandings.avi
Format : AVI
Format/Info : Audio Video Interleave
File size : 702 MiB
Duration : 1h 46mn
Overall bit rate : 917 Kbps

Video
ID : 0
Format : MPEG-4 Visual
Format settings, BVOP : 1
Format settings, QPel : No
Format settings, GMC : No warppoints
Format settings, Matrix : Default (H.263)
Muxing mode : Packed bitstream
Codec ID : DX50
Codec ID/Hint : DivX 5
Duration : 1h 46mn
Bit rate : 778 Kbps
Width : 496 pixels
Height : 336 pixels
Display aspect ratio : 3:2
Frame rate : 29.970 fps
Color space : YUV
Chroma subsampling : 4:2:0
Bit depth : 8 bits
Scan type : Progressive
Compression mode : Lossy
Bits/(Pixel*Frame) : 0.156
Stream size : 595 MiB (85%)
Writing library : DivX 6.8.0 (UTC 2007-12-04)

Audio
ID : 1
Format : MPEG Audio
Format version : Version 1
Format profile : Layer 3
Mode : Joint stereo
Mode extension : MS Stereo
Codec ID : 55
Codec ID/Hint : MP3
Duration : 1h 46mn
Bit rate mode : Constant
Bit rate : 128 Kbps
Channel(s) : 2 channels
Sampling rate : 48.0 KHz
Compression mode : Lossy
Stream size : 97.9 MiB (14%)
Alignment : Aligned on interleaves
Interleave, duration : 33 ms (1.00 video frame)
Interleave, preload duration : 504 ms
Writing library : LAME3.97
Encoding settings : -m j -V 4 -q 2 -lowpass 17 -b 128

Screenshots

Steve Latta - Fundamentals of Inlay: Making Ornamental Bandings (2010) (Repost)

Steve Latta - Fundamentals of Inlay: Making Ornamental Bandings (2010) (Repost)

Steve Latta - Fundamentals of Inlay: Making Ornamental Bandings (2010) (Repost)

no mirrors please, Follow The Rules
Visit Polik88 Blog Here
no password

Steve Latta - Fundamentals of Inlay: Making Ornamental Bandings (2010) (Repost)