Subcategories

Udemy - Affiliate Marketing: How I Make $500 a Month as an Affiliate (2015)

Posted By: house23
Udemy - Affiliate Marketing: How I Make $500 a Month as an Affiliate (2015)

Udemy - Affiliate Marketing: How I Make $500 a Month as an Affiliate (2015)
MP4 | AVC 357kbps | English | 1280x720 | 30fps | 1 hour | AAC stereo 63kbps | 140 MB
Genre: Video Training

Do you want to Earn Money as an Affiliate and don't know where to start? Have you applied for Udemy affiliate program and got rejected? You have no knowledge of computers and still want to make money online? Do you want to start your home based business and become your own boss? You are looking for another income stream or you want to start part time online work and earn money? This course is the best solution to all above problems.

What is Affiliate Marketing and How to Start Earning Money From Home as an Affiliate

If you are looking to work from home that requires very little time, no special skills and provides you with some very easy money, read on because in this course I'm going to teach you:

How to Make Passive Income by Selling online Products: Both Physical and Online.
How I make $500 a Month as an Affiliate: Affiliate Marketing Secrets Covered.

Affiliate Marketing is one of the most popular ways to make money online but ‘what is affiliate marketing?’. Many people see and hear about it and how normal people are making money by doing it, yet they fail to understand what it is and how it actually works.

Affiliate marketing has become one of the most popular ways for people to make money online. It has grown in popularity because it is virtually FREE to set up and the best thing about it is, just about anyone can start doing it, no matter how old you are or what walk of life you come from.

I will show you the entire process of Making Passive Money/Income from start to end:

I'll explain What is Affiliate Marketing.
How I make $500 a month by Selling Online Products as an Affiliate.
How to SignUp for Affiliate Marketing Network.
What is Affiliate Marketing Network - LinkShare.
How to use Affiliate Marketing Network - LinkShare.
I'll show you to get Affiliate Links for the Courses and Products.
I'll show you how to advertise your Affiliate Links and Earn Commissions on Sales.
I will help you in your application approval.
And more …
I look forward to seeing you in this course and wish you a great success in Selling Products/Udemy Courses as an Affiliate Marketer.

Affiliate Marketing Course Tags: How to make money online, Affiliate Marketing Network, Affiliate Marketing Program, Rakuten LinkShare, Make Passive Income, Udemy Affiliate Program, Work form home, Earn Money.

Section 1 Introduction

Section 2 Udemy Affiliate Program - Rakuten LinkShare

Section 3 Market Research - Finding A Niche - Finding A Product - HOT Niches

Section 4 How To Promote Your Affiliate Links

Section 5 Summary


Format : MPEG-4
Format profile : Base Media
Codec ID : isom
File size : 31.1 MiB
Duration : 10mn 17s
Overall bit rate mode : Variable
Overall bit rate : 423 Kbps
Encoded date : UTC 2014-12-07 22:07:49
Tagged date : UTC 2014-12-07 22:07:49
Video #1
ID : 1
Format : AVC
Format/Info : Advanced Video Codec
Format profile : Baseline@L3.1
Format settings, CABAC : No
Format settings, ReFrames : 3 frames
Codec ID : avc1
Codec ID/Info : Advanced Video Coding
Duration : 10mn 17s
Bit rate : 357 Kbps
Maximum bit rate : 6 078 Kbps
Width : 1 280 pixels
Height : 720 pixels
Display aspect ratio : 16:9
Frame rate mode : Constant
Frame rate : 30.000 fps
Color space : YUV
Chroma subsampling : 4:2:0
Bit depth : 8 bits
Scan type : Progressive
Bits/(Pixel*Frame) : 0.013
Stream size : 26.3 MiB (84%)
Writing library : Zencoder Video Encoding System
Encoded date : UTC 2014-12-07 22:07:02
Tagged date : UTC 2014-12-07 22:07:49
Audio #2
ID : 2
Format : AAC
Format/Info : Advanced Audio Codec
Format profile : LC
Codec ID : 40
Duration : 10mn 17s
Bit rate mode : Variable
Bit rate : 63.0 Kbps
Maximum bit rate : 71.8 Kbps
Channel(s) : 2 channels
Channel positions : Front: L R
Sampling rate : 44.1 KHz
Compression mode : Lossy
Stream size : 4.64 MiB (15%)
Encoded date : UTC 2014-12-07 22:07:49
Tagged date : UTC 2014-12-07 22:07:49


Udemy - Affiliate Marketing: How I Make $500 a Month as an Affiliate (2015)

Udemy - Affiliate Marketing: How I Make $500 a Month as an Affiliate (2015)

Udemy - Affiliate Marketing: How I Make $500 a Month as an Affiliate (2015)


No mirrors please