Subcategories

ACCA Courses - Financial Reporting, Financial Accounting, Management Accounting

Posted By: ParRus
ACCA Courses - Financial Reporting, Financial Accounting, Management Accounting

ACCA Courses - Financial Reporting, Financial Accounting, Management Accounting
WEBRip | English | FLV | 640 x 360 | Sorenson Spark ~198 kbps | 25 fps
MP3 | 56 kbps | 22.05 KHz | 2 channels | ~60 hours | 10.95 GB
Genre: eLearning Video / Business, Economics and Finance

ACCA F2 Management Accounting: This exam explores your understanding of how to prepare and analyse basic quantitative data and cost information in order to support managers in making important business decisions. ACCA F3 Financial Accounting: The aim of this exam is to test your ability to use double-entry accounting techniques. You will need to know the basic principles and regulations and demonstrate your technical proficiency. ACCA F7 Financial Reporting: This paper will build your knowledge of accounting standards, as well as developing yours skills relating to the application of theoretical frameworks to the preparation of financial statements. You will also learn how to interpret these financial statements.
London School of Business and Finance

ACCA F2 Management Accounting

This exam explores your understanding of how to prepare and analyse basic quantitative data and cost information in order to support managers in making important business decisions.

Topics include:

Management information
Cost accounting techniques
Budgeting
Standard costing
Performance measurement


ACCA F3 Financial Accounting

The aim of this exam is to test your ability to use double-entry accounting techniques. You will need to know the basic principles and regulations and demonstrate your technical proficiency.

This includes knowing how to prepare basic financial statements and basic consolidated financial statements, and how to interpret them.

Topics include:

Financial reporting
Qualitative characteristics of financial information
Double-entry and accounting systems
Recording transactions
Trial balance
Preparing basic financial statements
Preparing simple consolidated financial statements
Interpreting financial statements


ACCA F7 Financial Reporting

This paper will build your knowledge of accounting standards, as well as developing yours skills relating to the application of theoretical frameworks to the preparation of financial statements. You will also learn how to interpret these financial statements.

Topics

The conceptual and regulatory framework for financial reporting
Accounting for transactions in financial statements
Analysing and interpreting financial statements
Preparation of financial statements

also You can watch my other last: Business-posts

General
Complete name : ACF2S05P2H.flv
Format : Flash Video
File size : 108 MiB
Duration : 58mn 12s
Overall bit rate : 259 Kbps
Tagging application : BitGravity FLV Processor 2.1 (0.2.p10-dev)
metadatadate : 1235607366000.000
Meta_Tag : ACF2S05P2.FLV
numKeyframes : 350.000
cuePoints_name : cp-3490.000
cuePoints_type : event
cuePoints_time : 3490.000
name : cp-0.000
type : event

Video
Format : Sorenson Spark
Codec ID : 2
Duration : 58mn 12s
Bit rate : 198 Kbps
Width : 640 pixels
Height : 360 pixels
Display aspect ratio : 16:9
Frame rate mode : Constant
Frame rate : 25.000 fps
Bit depth : 8 bits
Bits/(Pixel*Frame) : 0.034
Stream size : 82.4 MiB (76%)

Audio
Format : MPEG Audio
Format version : Version 2
Format profile : Layer 3
Mode : Joint stereo
Mode extension : MS Stereo
Codec ID : 2
Codec ID/Hint : MP3
Duration : 58mn 12s
Bit rate mode : Constant
Bit rate : 56.0 Kbps
Channel(s) : 2 channels
Sampling rate : 22.05 KHz
Compression mode : Lossy
Stream size : 25.4 MiB (24%)
Writing library : LAME3.97

ScreenShots

ACCA Courses - Financial Reporting, Financial Accounting, Management Accounting

ACCA Courses - Financial Reporting, Financial Accounting, Management Accounting

ACCA Courses - Financial Reporting, Financial Accounting, Management Accounting

ACCA Courses - Financial Reporting, Financial Accounting, Management Accounting

ACCA Courses - Financial Reporting, Financial Accounting, Management Accounting

ACCA Courses - Financial Reporting, Financial Accounting, Management Accounting

ACCA Courses - Financial Reporting, Financial Accounting, Management Accounting

Exclusive eLearning Videos ParRus-blogadd to bookmarks

ACCA Courses - Financial Reporting, Financial Accounting, Management Accounting