Subcategories

Adobe Photoshop Lightroom 4: Learn by Video [repost]

Posted By: ParRus
Adobe Photoshop Lightroom 4: Learn by Video [repost]

Adobe Photoshop Lightroom 4: Learn by Video
WEBRip | MP4 + Project files | English | 1280 x 720 | AVC ~300 kbps | 25 fps
AAC ~64 Kbps | 44.1 KHz | 1 channel | 09:20:24 | 2.09 GB
Genre: eLearning Video / Photographing, Adobe Photoshop

Adobe Photoshop Lightroom is an all-in-one solution to your photographic needs, offering image management capabilities, high-end image processing power, and several photo sharing options. Lightroom 4 does even more than its predecessors, with exciting features like a new process version, the new Book and Map modules, and many improvements to the Develop module. In this Learn by Video course, produced in partnership with our friends at Peachpit Press, Mikkel Aaland teaches you how to import, manage, organize, optimize, and share your images with Lightroom 4, making the most of this powerful software at every step along the way.
Content:
Introduction to Lightroom 4

What Is Lightroom?
01:55

How to Use This Course
01:10

What's New in Lightroom 4
07:10

The Lightroom Workspace
04:01

Project Explorations

Importing Images from an iPhone
06:40

Posting a Video to Facebook
04:40

Working Efficiently with Virtual Copies, Stacking, and Snapshots
07:48

New Process Version
06:03

Importing Your Photos

Importing from a Memory Card or Hard Drive
09:57

Where to Store Your Photos
04:32

File Handling Options
04:32

File Renaming Options
06:32

Applying Develop and Metadata Settings on Import
06:48

Preferences for Photo Importing
07:05

Working with Lightroom

General Preferences
03:29

Presets Preferences
04:28

External Editing Preferences
04:39

File Handling Options
05:18

Interface Preferences
06:38

Working with Panels and Lights Out
10:41

Catalog Settings
08:40

Creating a Custom Watermark
08:03

Setting Up an Identity Plate
05:09

Working with the Library Module

The Library Module
03:50

Grid View
09:50

Loupe View
10:44

Compare View
07:20

Survey View
03:31

Working with the Filmstrip
09:35

Video Support
08:14

Quick Collections
03:04

Collections
10:17

Smart Collections
06:33

Rating, Labels, and Flags
12:23

Keywords
07:26

Working with Metadata
07:16

Library Filters
08:19

Stacking Photos
04:59

Dealing with Offline Files
05:12

Catalogs

Catalogs, Folders, and Collections
11:37

Backing Up Your Catalogs
03:26

Exporting

Exporting Images
12:21

Publishing Services
05:44

Working with the Map Module

Intro to the Map Module and Setting Map Preferences
12:56

Working with Tagged and Non-Tagged Photos, Filtering, and Using Saved Locations
11:23

Loading a Tracklog
04:14

Editing Essentials

Develop Presets
04:28

Basic Exposure Controls
11:59

Clarity for Your Photos
02:51

Vibrant and Saturated Colors
02:14

Fine-Tuning with the Tone Curve
08:19

Vignetting Effects
06:18

Applying Changes to Other Photos
10:26

Using Auto Sync
02:24

Color Adjustments
05:16

New Process Version
07:06

Chromatic Aberration
01:19

Soft Proofing
06:31

Quick Develop Panel
05:30

Creating Virtual Copies
02:39

Retouching and Correction: Local Adjustments

The Graduated Filter
07:36

Noise Reduction
04:03

Sharpening
07:56

Cropping and Straightening Photos
05:41

Adding Grain Effects in the Effects Panel
03:01

Lens Corrections
03:44

Removing Red-Eye
03:17

Sensor Dust Removal
06:54

Portrait Touch-Up
11:01

The Adjustment Brush
12:44

From Color to Black-and-White

Converting Color into Black-and-White
05:48

Adding a Color Tint
05:13

Sharing

Printing

Printing One Image
11:32

Printing Multiple Images
10:25

Print Settings
07:09

Slideshows and Web Photo Galleries

Creating a Web Gallery
07:15

Preview, Export, and Upload
05:16

Creating a Slideshow
14:29

Slideshow Presentation Options
07:03

Making Books

Preparing Your Images
06:07

Book Settings
05:48

Book Layout and Output
13:43

Closing Thoughts

Closing Thoughts
01:10

also You can look my other last: Photography-posts

General
Complete name : EN212_08_09.mp4
Format : MPEG-4
Format profile : Base Media / Version 2
Codec ID : mp42
File size : 29.3 MiB
Duration : 11mn 0s
Overall bit rate : 372 Kbps
Movie name : 08.09 Portrait Touch-Up
Album : Adobe Photoshop Lightroom 4: Learn by Video
Album/Performer : Mikkel Aaland
Track name/Position : 69
Performer : Mikkel Aaland
Genre : Video-Training
Recorded date : 2012
Encoded date : UTC 2012-03-25 11:45:05
Tagged date : UTC 2012-04-10 11:30:00
Writing application : Sorenson Squeeze
Copyright : © 2012, video2brain GmbH
Cover : Yes
desc :
ldes
catg : Video-Training
stik : 10
tvsh : Adobe Photoshop Lightroom 4: Learn by Video

Video
ID : 2
Format : AVC
Format/Info : Advanced Video Codec
Format profile : Baseline@L3.1
Format settings, CABAC : No
Format settings, ReFrames : 3 frames
Format settings, GOP : M=1, N=74
Codec ID : avc1
Codec ID/Info : Advanced Video Coding
Duration : 11mn 0s
Duration_LastFrame : 42ms
Bit rate mode : Variable
Bit rate : 300 Kbps
Width : 1 280 pixels
Height : 720 pixels
Display aspect ratio : 16:9
Frame rate mode : Constant
Frame rate : 25.000 fps
Color space : YUV
Chroma subsampling : 4:2:0
Bit depth : 8 bits
Scan type : Progressive
Bits/(Pixel*Frame) : 0.013
Stream size : 23.6 MiB (81%)
Writing library : x264 core 115
Encoding settings : cabac=0 / ref=3 / deblock=1:0:0 / analyse=0x1:0x111 / me=hex / subme=7 / psy=1 / psy_rd=1.00:0.00 / mixed_ref=1 / me_range=16 / chroma_me=1 / trellis=1 / 8x8dct=0 / cqm=0 / deadzone=21,11 / fast_pskip=1 / chroma_qp_offset=-2 / threads=12 / sliced_threads=0 / nr=0 / decimate=1 / interlaced=0 / bluray_compat=0 / constrained_intra=0 / bframes=0 / weightp=0 / keyint=74 / keyint_min=7 / scenecut=50 / intra_refresh=0 / rc_lookahead=40 / rc=2pass / mbtree=1 / bitrate=300 / ratetol=1.0 / qcomp=0.60 / qpmin=0 / qpmax=69 / qpstep=4 / cplxblur=20.0 / qblur=0.5 / ip_ratio=1.40 / aq=1:1.00
Encoded date : UTC 2012-03-25 11:45:05
Tagged date : UTC 2012-03-25 11:45:05

Audio
ID : 1
Format : AAC
Format/Info : Advanced Audio Codec
Format profile : LC
Codec ID : 40
Duration : 11mn 0s
Bit rate mode : Constant
Bit rate : 64.0 Kbps
Channel(s) : 1 channel
Channel positions : Front: C
Sampling rate : 44.1 KHz
Compression mode : Lossy
Stream size : 5.04 MiB (17%)
Encoded date : UTC 2012-03-25 11:45:05
Tagged date : UTC 2012-03-25 11:45:05

Screenshots

Adobe Photoshop Lightroom 4: Learn by Video [repost]

Adobe Photoshop Lightroom 4: Learn by Video [repost]

Adobe Photoshop Lightroom 4: Learn by Video [repost]

Adobe Photoshop Lightroom 4: Learn by Video [repost]

Adobe Photoshop Lightroom 4: Learn by Video [repost]

Adobe Photoshop Lightroom 4: Learn by Video [repost]

Exclusive eLearning Videos ParRus-blogadd to bookmarks

Adobe Photoshop Lightroom 4: Learn by Video [repost]