Subcategories

Algorithms in C : Concepts, Examples, Code + Time Complexity (2016)

Posted By: ParRus
Algorithms in C : Concepts, Examples, Code + Time Complexity (2016)

Algorithms in C : Concepts, Examples, Code + Time Complexity (2016)
WEBRip | English | MP4 + PDF Guides | 1280 x 720 | AVC ~610 kbps | 30 fps
AAC | 75.1 Kbps | 44.1 KHz | 2 channels | 3h 30mn | 1.08 GB
Genre: Video Tutorial / Development, Programming

Learn algorithms in C language. Understand Logic with examples, practice code and crack those programming interviews!
What's New: New section on Transform and Conquer algorithms,Time Complexity Quiz, Master Theorem, Number Theoretic Algorithms Algorithms are very important for programmers to develop efficient software designing and programming skills. This Course introduces you to most important algorithms in computer science. Each video explains the concept/logic behind the algorithm, provides an example and explains pseudo-code. Each video also has working C programs of algorithm implementations with sample input & output. This course will help you crack those programming interviews on algorithms.

Lectures: 32
Video: 3.5 hours
Skill level: All Levels
Recently updated: February 16, 2016!


Contents:

Section 1 - Introduction

1. Course Introduction and Author Bio
2. Course Curriculum & Upcoming lectures

Section 2 - Brute Force Approach

3. Selection Sort Algorithm
C_Program_on_SelectionSort.pdf
4. Bubble Sort Algorithm
C Program On Bubble Sort
5. Sequential Search Algorithm
C Program Sequential Search
6. Brute Force String Matching Algorithm
C Program On String Matching
BruteForceStringMatch.pdf
quiz 1: Brute Force Quiz

Section 3 - Divide and Conquer Approach

7. Merge Sort Algorithm
C Program On Merge Sort
8. Quick Sort Algorithm
C Program Quick Sort
quiz 2: Divide and Conquer Quiz

Section 4 - Decrease and Conquer Approach

9. Binary Search Algorithm
C Program Binary Search
10. Insertion Sort Algorithm
C Program On Insertion Sort
11. Depth First Search Algorithm
C Program On DFS
12. Breadth First Search Algorithm
C Program BFS
quiz 3: Decrease and Conquer Quiz

Section 5 - Transform and Conquer Approach

13. Heaps
Heaps.pdf
14. Heap Construction [bottom-up approach]
C_Program_HeapConstruction.pdf
15. Heap Sort Algorithm
C_Program_HeapSort.pdf

Section 6 - Dynamic Programming

16. Warshall's Algorithm
C Program Warshall 's Algorithm
17. Floyd's Algorithm
C Program On Floyd 's Algorithm
quiz 4: Dynamic Programming Quiz

Section 7 - Greedy Technique

18. Prim's Algorithm
C Program On Prim 's Algorithm
19. Kruskal's Algorithm
C Program On Kruskal 's Algorithm
quiz 5: Greedy Technique Quiz

Section 8 - Bonus Section : Time Complexity

20. Introduction to Analysis of Algorithms
21. Asymptotic Notations
22. Time Complexity - Selection Sort Algorithm
23. Time Complexity - Bubble Sort Algorithm
24. Time Complexity - Sequential Search Algorithm
25. Time Complexity - String Matching Algorithm
26. Time Complexity - Insertion Sort Algorithm
27. Time Complexity - Warshall's Algorithm
Time Complexity of Warshall's algorithm.pdf
28. Time Complexity - Floyd's Algorithm
Time Complexity of Floyd's algorithm.pdf
29. Master Theorem
quiz 6: Time Complexity Quiz

Section 9 - Number Theoretic Algorithms

30. Euclid's Algorithm [GCD of two numbers]
C Program on Euclid's Algorithm.pdf
Euclid_Algorithm.pdf
31. C Program on Euclid's Algorithm
32. RSA Algorithm
CProgramOnRSA.pdf
RSA_Algorithm.pdf
quiz 7: Number Theory Quiz

also You can watch my other last: Programming-posts

General
Complete name : 11. Depth First Search Algorithm.mp4
Format : MPEG-4
Format profile : Base Media
Codec ID : isom (isom/avc1/mp42)
File size : 30.9 MiB
Duration : 6mn 16s
Overall bit rate mode : Variable
Overall bit rate : 688 Kbps
Encoded date : UTC 2015-09-21 10:24:59
Tagged date : UTC 2015-09-21 10:24:59

Video
ID : 1
Format : AVC
Format/Info : Advanced Video Codec
Format profile : Baseline@L3.2
Format settings, CABAC : No
Format settings, ReFrames : 3 frames
Format settings, GOP : M=1, N=50
Codec ID : avc1
Codec ID/Info : Advanced Video Coding
Duration : 6mn 16s
Bit rate : 610 Kbps
Maximum bit rate : 6 292 Kbps
Width : 1 280 pixels
Height : 720 pixels
Display aspect ratio : 16:9
Frame rate mode : Constant
Frame rate : 30.000 fps
Color space : YUV
Chroma subsampling : 4:2:0
Bit depth : 8 bits
Scan type : Progressive
Bits/(Pixel*Frame) : 0.022
Stream size : 27.4 MiB (89%)
Writing library : Zencoder Video Encoding System
Encoded date : UTC 2015-09-21 10:23:31
Tagged date : UTC 2015-09-21 10:24:59
Color range : Limited
Color primaries : BT.709
Transfer characteristics : BT.709
Matrix coefficients : BT.709

Audio
ID : 2
Format : AAC
Format/Info : Advanced Audio Codec
Format profile : LC
Codec ID : 40
Duration : 6mn 16s
Bit rate mode : Variable
Bit rate : 75.1 Kbps
Maximum bit rate : 103 Kbps
Channel(s) : 2 channels
Channel positions : Front: L R
Sampling rate : 44.1 KHz
Frame rate : 43.066 fps (1024 spf)
Compression mode : Lossy
Stream size : 3.37 MiB (11%)
Encoded date : UTC 2015-09-21 10:23:31
Tagged date : UTC 2015-09-21 10:24:59

Screenshots

Algorithms in C : Concepts, Examples, Code + Time Complexity (2016)

Algorithms in C : Concepts, Examples, Code + Time Complexity (2016)

Algorithms in C : Concepts, Examples, Code + Time Complexity (2016)

Algorithms in C : Concepts, Examples, Code + Time Complexity (2016)

Algorithms in C : Concepts, Examples, Code + Time Complexity (2016)

Exclusive eLearning Videos ParRus-blogadd to bookmarks

Algorithms in C : Concepts, Examples, Code + Time Complexity (2016)