Subcategories

Robert Dilts - Authentic Leadership: The Alpha Leader

Posted By: ParRus
Robert Dilts - Authentic Leadership: The Alpha Leader

Robert Dilts - Authentic Leadership: The Alpha Leader
DVDRip | English | AVI | 720 x 576 | AVC ~1153 Kbps | 25 fps
MP3 | 192 Kbps | 44.1 KHz | 2 channels | 06:59:18 | 3.96 GB
Genre: Video Tutorial / Hypnosis, NLP

In this recording, produced at a live 2-day seminar in 2009, Robert Dilts shares his insights with a live audience. He presents the skills and practices that will support you to understand and master The Alpha Leadership model and The Inner Game of Leadership. You will develop:
A feeling of confidence and the absence of anxiety and self-doubt
A sense of "humble authority" – self-confidence without arrogance
A capacity to accept and benefit from challenges and change rather than to be subjected to them
A state of focused spaciousness in the mind and relaxed readiness in the body
A greater ability to remain connected to your deep identity and maintain a sense of calm and trust in challenging and unstable conditions
The ability to handle both opportunities and dangers in times of change.

You will further learn how to:

Develop the capacity to be present and centered in yourself
Be aligned with your core values and vision
Be connected with those around you

also You can find my other last: NLP-posts

General
Complete name : VTS_06_2.avi
Format : AVI
Format/Info : Audio Video Interleave
File size : 64.6 MiB
Duration : 6 min 39 s
Overall bit rate : 1 358 kb/s
Writing application : Lavf52.13.0

Video
ID : 0
Format : MPEG-4 Visual
Format profile : Simple@L1
Format settings, BVOP : No
Format settings, QPel : No
Format settings, GMC : No warppoints
Format settings, Matrix : Default (H.263)
Codec ID : divx
Codec ID/Info : Mainly used by Google
Codec ID/Hint : DivX
Duration : 6 min 39 s
Bit rate : 1 153 kb/s
Width : 720 pixels
Height : 576 pixels
Display aspect ratio : 5:4
Frame rate : 25.000 FPS
Standard : PAL
Color space : YUV
Chroma subsampling : 4:2:0
Bit depth : 8 bits
Scan type : Progressive
Compression mode : Lossy
Bits/(Pixel*Frame) : 0.111
Stream size : 54.9 MiB (85%)
Writing library : Lavc51.54.0

Audio
ID : 1
Format : MPEG Audio
Format version : Version 1
Format profile : Layer 3
Mode : Joint stereo
Mode extension : MS Stereo
Codec ID : 55
Codec ID/Hint : MP3
Duration : 6 min 39 s
Bit rate mode : Constant
Bit rate : 192 kb/s
Channel(s) : 2 channels
Sampling rate : 44.1 kHz
Compression mode : Lossy
Stream size : 9.14 MiB (14%)
Alignment : Aligned on interleaves
Interleave, duration : 26 ms (0.65 video frame)
Interleave, preload duration : 26 ms

Screenshots

Robert Dilts - Authentic Leadership: The Alpha Leader

Robert Dilts - Authentic Leadership: The Alpha Leader

Robert Dilts - Authentic Leadership: The Alpha Leader

Robert Dilts - Authentic Leadership: The Alpha Leader

Robert Dilts - Authentic Leadership: The Alpha Leader

Robert Dilts - Authentic Leadership: The Alpha Leader

Exclusive eLearning Videos ParRus-blogadd to bookmarks

Feel free to contact me PM
when links are dead or want any repost

Robert Dilts - Authentic Leadership: The Alpha Leader