Android App Development for Beginners: 86 Hours+ & 79 Apps (Update 2017)

Posted By: ParRus
Android App Development for Beginners: 86 Hours+ & 79 Apps (Update 2017)

Android App Development for Beginners: 86 Hours+ & 79 Apps
WEBRip | English | MP4 | 1280 x 720 | AVC ~178 kbps | 20 fps
AAC | 192 Kbps | 48.0 KHz | 2 channels | 87.5 hours | 13.31 GB
Genre: eLearning Video / Development, Programming

This self-contained course will help you learn Android app development for beginners and create your first mobile apps. With over 500 lectures and more than 86 hours of HD content, this course will help you become a Android developer and teach you how to develop cool Android apps.
The main goal of this course is to teach you anything you need to know about Java & Android to develop your own apps. By the end of this course, you'll be able to create your own Android apps and add them to your portfolio.

I’ll personally be answering any questions you have and I’ll be happy to provide links, resources and any help I can offer to help you master Java programming and Android app development.

What are you waiting for?! Click "Take This Course" and let's get started!

Credit for the image: victoriawhite on Flickr

Type of licence: Attribution 2.0 Generic (CC BY 2.0)

Requirements
No Programming Experience is Required
No Programming Knowledge Required
Passion to Create Awesome Android Apps
A Windows PC, Mac or Linux Computer

The target audience?
People who have no programming experience
This Course teaches the more Advanced Concepts of Android Development, so it's also Essential for Advanced Android Developers too.
People who want create their own android applications
People who want to get a job as an Android Developer
People who want to create awesome Android Applications just for fun
People who want to work as a Freelancer

Content:
Create Professional Java Applications
Create Greate Android Applications
Apply for your dream job as an Android Developer
Bring your own App Idea to Life
Build a fantastic resume in order to show to employers
Master Java Programming Language

also You can watch my other last: Programming-posts

General
Complete name : 900464 - 465 - App 79 - Part 1 - Master Maps and Speech Recognition in Android!.mp4
Format : MPEG-4
Format profile : Base Media / Version 2
Codec ID : mp42 (isom/iso2/avc1/mp41/mp42)
File size : 42.2 MiB
Duration : 16 min 0 s
Overall bit rate : 368 kb/s
Encoded date : UTC 2017-06-02 14:06:10
Tagged date : UTC 2017-06-02 14:06:10
Writing application : Lavf53.32.100

Video
ID : 1
Format : AVC
Format/Info : Advanced Video Codec
Format profile : High@L3
Format settings, CABAC : Yes
Format settings, ReFrames : 4 frames
Codec ID : avc1
Codec ID/Info : Advanced Video Coding
Duration : 16 min 0 s
Bit rate : 178 kb/s
Width : 1 280 pixels
Height : 720 pixels
Display aspect ratio : 16:9
Frame rate mode : Constant
Frame rate : 20.000 FPS
Color space : YUV
Chroma subsampling : 4:2:0
Bit depth : 8 bits
Scan type : Progressive
Bits/(Pixel*Frame) : 0.010
Stream size : 20.2 MiB (48%)
Writing library : x264 core 136
Encoding settings : cabac=1 / ref=4 / deblock=1:0:0 / analyse=0x3:0x113 / me=umh / subme=7 / psy=0 / mixed_ref=1 / me_range=16 / chroma_me=1 / trellis=1 / 8x8dct=1 / cqm=0 / deadzone=21,11 / fast_pskip=0 / chroma_qp_offset=0 / threads=48 / lookahead_threads=5 / sliced_threads=0 / nr=0 / decimate=1 / interlaced=0 / bluray_compat=0 / constrained_intra=0 / bframes=16 / b_pyramid=2 / b_adapt=1 / b_bias=0 / direct=1 / weightb=1 / open_gop=0 / weightp=2 / keyint=300 / keyint_min=25 / scenecut=40 / intra_refresh=0 / rc=2pass / mbtree=0 / bitrate=178 / ratetol=1.0 / qcomp=0.60 / qpmin=10 / qpmax=51 / qpstep=4 / cplxblur=20.0 / qblur=0.5 / ip_ratio=1.40 / pb_ratio=1.30 / aq=1:1.00
Encoded date : UTC 2017-06-02 14:06:10
Tagged date : UTC 2017-06-02 15:17:52

Audio
ID : 2
Format : AAC
Format/Info : Advanced Audio Codec
Format profile : LC
Codec ID : 40
Duration : 16 min 0 s
Bit rate mode : Constant
Bit rate : 192 kb/s
Channel(s) : 2 channels
Channel positions : Front: L R
Sampling rate : 48.0 kHz
Frame rate : 46.875 FPS (1024 spf)
Compression mode : Lossy
Stream size : 21.7 MiB (51%)
Default : Yes
Alternate group : 1
Encoded date : UTC 2017-06-02 14:06:10
Tagged date : UTC 2017-06-02 15:17:52
Screenshots

Android App Development for Beginners: 86 Hours+ & 79 Apps (Update 2017)

Android App Development for Beginners: 86 Hours+ & 79 Apps (Update 2017)

Android App Development for Beginners: 86 Hours+ & 79 Apps (Update 2017)

Android App Development for Beginners: 86 Hours+ & 79 Apps (Update 2017)

Android App Development for Beginners: 86 Hours+ & 79 Apps (Update 2017)

Exclusive eLearning Videos ParRus-blogadd to bookmarks

Feel free to contact me PM
when links are dead or want any repost

Android App Development for Beginners: 86 Hours+ & 79 Apps (Update 2017)