Subcategories

InfiniteSkills - Avid Pro Tools 12 Fundamentals (2015)

Posted By: ParRus
InfiniteSkills - Avid Pro Tools 12 Fundamentals (2015)

InfiniteSkills - Avid Pro Tools 12 Fundamentals
WEBRip | English | MP4 + Project Files | 1280 x 720 | AVC ~493 kbps | 15 fps
AAC | 125 Kbps | 48.0 KHz | 2 channels | 6h 30mn | 2.09 GB
Genre: Video Tutorial / Sound Processing

In this Avid Pro Tools 12 Fundamentals training course, expert author Joe Godfrey teaches you the tools and techniques needed to work within this digital audio workstation. This course is designed for the absolute beginner, meaning no prior experience with Pro Tools is required.
You will start by learning about basic editing in the timeline, then jump into learning how to customize Pro Tools. From there, Joe will teach you how to record and edit a voice track, edit music tracks, and use elastic audio. This video tutorial also covers MIDI in Pro Tools, tracking instruments, sound design, and working with video. Finally, you will learn about mixing and automation, including automating volume, printing effects and stems, and archiving your sessions.

Once you have completed this computer based training course, you will be fully capable of using Pro Tools 12 to compose, record, edit, and mix music and audio. Working files are included, allowing you to follow along with the author throughout the lessons.

also You can look my other last: Sound Processing-posts

General
Complete name : 07_08-Performance Transpositions Using Xpand2.mp4
Format : MPEG-4
Format profile : Base Media / Version 2
Codec ID : mp42 (mp42/mp41)
File size : 16.1 MiB
Duration : 3mn 37s
Overall bit rate mode : Variable
Overall bit rate : 622 Kbps
Encoded date : UTC 2015-08-21 16:36:29
Tagged date : UTC 2015-08-21 16:36:29
©TIM : 48931
©TSC : 15
©TSZ : 1

Video
ID : 1
Format : AVC
Format/Info : Advanced Video Codec
Format profile : High@L4.1
Format settings, CABAC : Yes
Format settings, ReFrames : 3 frames
Format settings, GOP : M=3, N=75
Codec ID : avc1
Codec ID/Info : Advanced Video Coding
Duration : 3mn 37s
Bit rate mode : Variable
Bit rate : 493 Kbps
Maximum bit rate : 1 000 Kbps
Width : 1 280 pixels
Height : 720 pixels
Display aspect ratio : 16:9
Frame rate mode : Constant
Frame rate : 15.000 fps
Standard : NTSC
Color space : YUV
Chroma subsampling : 4:2:0
Bit depth : 8 bits
Scan type : Progressive
Bits/(Pixel*Frame) : 0.036
Stream size : 12.8 MiB (79%)
Language : English
Encoded date : UTC 2015-08-21 16:36:29
Tagged date : UTC 2015-08-21 16:36:29
Color range : Limited
Color primaries : BT.709
Transfer characteristics : BT.709
Matrix coefficients : BT.709

Audio
ID : 2
Format : AAC
Format/Info : Advanced Audio Codec
Format profile : LC
Codec ID : 40
Duration : 3mn 37s
Source duration : 3mn 37s
Bit rate mode : Variable
Bit rate : 125 Kbps
Maximum bit rate : 200 Kbps
Channel(s) : 2 channels
Channel positions : Front: L R
Sampling rate : 48.0 KHz
Frame rate : 46.875 fps (1024 spf)
Compression mode : Lossy
Stream size : 3.25 MiB (20%)
Source stream size : 3.25 MiB (20%)
Language : English
Encoded date : UTC 2015-08-21 16:36:29
Tagged date : UTC 2015-08-21 16:36:29

Screenshots

InfiniteSkills - Avid Pro Tools 12 Fundamentals (2015)

InfiniteSkills - Avid Pro Tools 12 Fundamentals (2015)

InfiniteSkills - Avid Pro Tools 12 Fundamentals (2015)

InfiniteSkills - Avid Pro Tools 12 Fundamentals (2015)

Exclusive eLearning Videos ParRus-blogadd to bookmarks

InfiniteSkills - Avid Pro Tools 12 Fundamentals (2015)