Subcategories

Fred Sokolow - Beginner's Country Guitar

Posted By: ParRus
Fred Sokolow - Beginner's Country Guitar

Fred Sokolow - Beginner's Country Guitar
DVD5 | English | VIDEO_TS + PDF | 720 x 480 | MPEG2 ~6159 kbps | 29.970 fps
AC-3 192 Kbps 48.0 KHz | 2 channels | 01:05:00 | 4.01 GB
Genre: eLearning Video / Guitar lesson, Singing, Voice

This DVD gives you the tools you need to play old-fashioned country, honky-tonk and country rock. Playing classics shows you the basics of country guitar. Fred Sokolow’s teaching is clear and easy to understand and he has lots of helpful hints for beginners. Begins with two chord songs and goes from there. Good for learning to sing country too!
Content:

Accompaniment strums for different rhythmic feels
A variety of first-position chords
Bass runs
Major scales
Solos and turnarounds
Strumming, Chords, Using a Pick and More!

Songs:

Jambalaya
Waltz Across Texas
Wild Side Of Life
Will The Circle Be Unbroken
The Bottle Let Me Down
I’m So Lonesome I Could Cry
I’m Movin’ On
Blue Eyes Crying In The Rain
Silver Wings

also You can find my other helpful Guitar-posts
(if old file-links don't show activity, try copy-paste them to the address bar)

General
Complete name : VTS_02_2.VOB
Format : MPEG-PS
File size : 1 024 MiB
Duration : 22 min 5 s
Overall bit rate mode : Variable
Overall bit rate : 6 480 kb/s

Video
ID : 224 (0xE0)
Format : MPEG Video
Format version : Version 2
Format profile : Main@Main
Format settings : CustomMatrix / BVOP
Format settings, BVOP : Yes
Format settings, Matrix : Custom
Format settings, GOP : M=3, N=15
Format settings, picture structure : Frame
Duration : 22 min 5 s
Bit rate mode : Variable
Bit rate : 6 159 kb/s
Maximum bit rate : 9 000 kb/s
Width : 720 pixels
Height : 480 pixels
Display aspect ratio : 4:3
Frame rate : 29.970 (30000/1001) FPS
Standard : NTSC
Color space : YUV
Chroma subsampling : 4:2:0
Bit depth : 8 bits
Scan type : Interlaced
Scan order : Top Field First
Compression mode : Lossy
Bits/(Pixel*Frame) : 0.595
Time code of first frame : 01:22:33:01
Time code source : Group of pictures header
GOP, Open/Closed : Closed
Stream size : 973 MiB (95%)

Audio
ID : 189 (0xBD)-128 (0x80)
Format : AC-3
Format/Info : Audio Coding 3
Muxing mode : DVD-Video
Duration : 22 min 5 s
Bit rate mode : Constant
Bit rate : 192 kb/s
Channel(s) : 2 channels
Channel positions : Front: L R
Sampling rate : 48.0 kHz
Frame rate : 31.250 FPS (1536 SPF)
Bit depth : 16 bits
Compression mode : Lossy
Delay relative to video : -209 ms
Stream size : 30.3 MiB (3%)
Service kind : Complete Main

Menu
Screenshots

Fred Sokolow - Beginner's Country Guitar

Fred Sokolow - Beginner's Country Guitar

Fred Sokolow - Beginner's Country Guitar

Fred Sokolow - Beginner's Country Guitar

Fred Sokolow - Beginner's Country Guitar

Fred Sokolow - Beginner's Country Guitar

✅ Exclusive eLearning Videos ParRus-blogadd to bookmarks

Feel free to contact me PM
when links are dead or want any repost

Fred Sokolow - Beginner's Country Guitar