Subcategories

Beginning Bluegrass Banjo taught by Peter Wernick

Posted By: ParRus
Beginning Bluegrass Banjo taught by Peter Wernick

Beginning Bluegrass Banjo taught by Peter Wernick
DVDRip | English | AVI | 512 x 384 | DX50 ~905 kbps | 29.970 fps
MP3 32 Kbps 44.1 KHz | 2 channels | 01:40:52 | 751 MB
Genre: eLearning Video / Guitar lesson

Through his books, videos, classes and workshops, Pete (Dr. Banjo) Wernick has probably gotten more people playing bluegrass banjo than just about anyone. His video, "Beginning Bluegrass Banjo, " has been one of Homespun’s most popular titles since it was issued in 1986. Now we are re-releasing it in DVD format, making it easier than ever for new players to get started.
This is the perfect course for those who want to play three-finger style bluegrass banjo from scratch. You may never have touched a banjo before, but Pete will have you picking right from the opening minutes of this user-friendly DVD. After getting tuned up and learning some easy chords, Pete teaches you the basic rolls and left-hand fingerings that make up your first bluegrass instrumental. As you progress, you’ll learn how to add slides, hammer-ons, pull-offs, and a variety of right-hand rolls in the three-finger bluegrass style.

By the time you finish this course, you'll be picking favorite bluegrass songs, including "Buffalo Gals," "Mama Don't 'Low," "Columbus Stockade Blues," "Handsome Molly," "Shady Grove," "Worried Man," "Big Ball In Boston," "Red River Valley," "Roll In My Sweet Baby's Arms," "Jesse James," "Lonesome Road Blues," "Little Maggie" and "That Good Old Mountain Dew."

also You can look my other last: Guitar Lessons-posts

General
Complete name : Peter Wernick – Beginning Bluegrass Banjo (2003).avi
Format : AVI
Format/Info : Audio Video Interleave
File size : 751 MiB
Duration : 1h 40mn
Overall bit rate : 1 041 Kbps

Video
ID : 0
Format : MPEG-4 Visual
Format settings, BVOP : 1
Format settings, QPel : No
Format settings, GMC : No warppoints
Format settings, Matrix : Default (H.263)
Muxing mode : Packed bitstream
Codec ID : DX50
Codec ID/Hint : DivX 5
Duration : 1h 40mn
Bit rate : 905 Kbps
Width : 512 pixels
Height : 384 pixels
Display aspect ratio : 4:3
Frame rate : 29.970 fps
Color space : YUV
Chroma subsampling : 4:2:0
Bit depth : 8 bits
Scan type : Progressive
Compression mode : Lossy
Bits/(Pixel*Frame) : 0.154
Stream size : 653 MiB (87%)
Title : Video
Writing library : DivX 5.2.1 Alpha (UTC 2004-09-08)

Audio
ID : 1
Format : MPEG Audio
Format version : Version 1
Format profile : Layer 3
Mode : Joint stereo
Mode extension : MS Stereo
Codec ID : 55
Codec ID/Hint : MP3
Duration : 1h 40mn
Bit rate mode : Constant
Bit rate : 32.0 Kbps
Channel(s) : 2 channels
Sampling rate : 44.1 KHz
Compression mode : Lossy
Stream size : 88.1 MiB (12%)
Alignment : Aligned on interleaves
Interleave, duration : 26 ms (0.78 video frame)
Interleave, preload duratio : 117 ms
Title : Audio
Writing library : LAME3.92
Screenshots

Beginning Bluegrass Banjo taught by Peter Wernick

Beginning Bluegrass Banjo taught by Peter Wernick

Beginning Bluegrass Banjo taught by Peter Wernick

Exclusive eLearning Videos ParRus-blogadd to bookmarks

Beginning Bluegrass Banjo taught by Peter Wernick