Subcategories

The Rock House Method - Blues Riffs Rhythms and Secrets [repost]

Posted By: ParRus
The Rock House Method - Blues Riffs Rhythms and Secrets [repost]

The Rock House Method - Blues Riffs Rhythms and Secrets
DVD5 | English, Spanish | VIDEO_TS | 720 x 480 | MPEG2 ~5500 kbps | 30 fps
AC-3 192 Kbps 48.0 KHz | 2 channels | 01:31:15 | 3.98 GB
Genre: eLearning Video / Guitar lesson

Learn all the techniques needed to play the blues from rhythms to leads. Topics include blues and pentatonic scales, techniques like vibrato, bending, hammer-ons and pull-offs, turnarounds, and all types of blues rhythms with bass and drum backing tracks, to facilitate learning.
Each Rock House video Includes a lesson tab booklet, iPod-ready video, and free lifetime membership to Rock House's online lesson support. Enhance your learning experience to links with instructors, download backing tracks, access message boards, and much more. You'll connect with a community of musicians around the world learning to play music using The Rock House Method.

also You can find my other last: Guitar Lessons-posts

General
Complete name : VTS_03_2.VOB
Format : MPEG-PS
File size : 1 024 MiB
Duration : 23 min 51 s
Overall bit rate mode : Constant
Overall bit rate : 6 000 kb/s

Video
ID : 224 (0xE0)
Format : MPEG Video
Format version : Version 2
Format profile : Main@Main
Format settings, BVOP : Yes
Format settings, Matrix : Default
Format settings, GOP : M=2, N=16
Format settings, picture structure : Frame
Duration : 23 min 51 s
Bit rate mode : Constant
Bit rate : 5 500 kb/s
Width : 720 pixels
Height : 480 pixels
Display aspect ratio : 4:3
Frame rate : 29.970 (30000/1001) FPS
Standard : NTSC
Color space : YUV
Chroma subsampling : 4:2:0
Bit depth : 8 bits
Scan type : Interlaced
Scan order : Top Field First
Compression mode : Lossy
Bits/(Pixel*Frame) : 0.531
Time code of first frame : 01:27:07:22
Time code source : Group of pictures header
GOP, Open/Closed : Closed
Stream size : 938 MiB (92%)

Audio #1
ID : 189 (0xBD)-128 (0x80)
Format : AC-3
Format/Info : Audio Coding 3
Format settings, Endianness : Big
Muxing mode : DVD-Video
Duration : 23 min 51 s
Bit rate mode : Constant
Bit rate : 192 kb/s
Channel(s) : 2 channels
Channel positions : Front: L R
Sampling rate : 48.0 kHz
Frame rate : 31.250 FPS (1536 spf)
Bit depth : 16 bits
Compression mode : Lossy
Delay relative to video : -278 ms
Stream size : 32.8 MiB (3%)
Service kind : Complete Main

Audio #2
ID : 189 (0xBD)-129 (0x81)
Format : AC-3
Format/Info : Audio Coding 3
Format settings, Endianness : Big
Muxing mode : DVD-Video
Duration : 23 min 51 s
Bit rate mode : Constant
Bit rate : 192 kb/s
Channel(s) : 2 channels
Channel positions : Front: L R
Sampling rate : 48.0 kHz
Frame rate : 31.250 FPS (1536 spf)
Bit depth : 16 bits
Compression mode : Lossy
Delay relative to video : -278 ms
Stream size : 32.8 MiB (3%)
Service kind : Complete Main
Menu
Screenshots

The Rock House Method - Blues Riffs Rhythms and Secrets [repost]

The Rock House Method - Blues Riffs Rhythms and Secrets [repost]

The Rock House Method - Blues Riffs Rhythms and Secrets [repost]

The Rock House Method - Blues Riffs Rhythms and Secrets [repost]

The Rock House Method - Blues Riffs Rhythms and Secrets [repost]

The Rock House Method - Blues Riffs Rhythms and Secrets [repost]

Exclusive eLearning Videos ParRus-blogadd to bookmarks

Feel free to contact me PM
when links are dead or want any repost

The Rock House Method - Blues Riffs Rhythms and Secrets [repost]