Tags
Language
Tags

Building Modern Web Applications with Go (Golang)

Posted By: ParRus
Building Modern Web Applications with Go (Golang)

Building Modern Web Applications with Go (Golang)
WEBRip | English | MP4 | 1280 x 720 | AVC ~903 Kbps | 30 fps
AAC | 128 Kbps | 44.1 KHz | 2 channels | ~29 hours | 13.1 GB
Genre: eLearning Video / Development, Web Development, Web App Development

Learn to program in Go from an award winning university professor
What you'll learn
How to write programs in the Go language (often called Golang)
How to create HTML pages using HTML5
How to write Javascript without depending on something like jQuery
How to create and use Cascading Style Sheets
How to build modern, secure web applications in Google's Go programming language
How to organize your Go application correctly
How to write tests in Go
How to connect to a database in Go
How to manage sessions in Go
How to create and use middleware in Go
How to use 3rd party packages with Go Modules
How to implement secure user authentication in Go
Best practices for security in web applications
How to deploy a Go web application to a live server

Requirements
There are no prerequisites for this course. All you need is a computer (Mac, Windows, or Linux) and an Internet connection.

Description
Learn to write modern, fast, and secure web applications in Google's Go programming language, and learn it from an award winning University professor with 20 years of teaching experience, and 20 years of experience working in the industry as an entrepreneur.

Go is a modern, type safe, compiled, and extremely fast programming language. It it is ideally suited for building safe, scalable, incredibly fast web applications.

This course is well-suited for both absolute beginners, and for developers who already know something about web development, but want to add Go to their toolbox.

We start with an overview of the Go language, and then cover everything you need to get started writing web applications, including an overview of HTML5, a survey of JavaScript and JavaScript modules, how to work with Cascading Style Sheets to make our application look the way we want, and much more.

The major project in this course is building a bookings and reservation system for a Bed & Breakfast. Visitors to our site will be able to search for accommodations by date and make an online reservation, and the site owner will be able to manage reservations from a secure back end.

By the time you finish this course, you will have a solid grasp of what it takes to build a completely functional, secure, and fast web application from the ground up, and you will have a solid understanding of the Go programming language.

also You can find my other useful: Development-posts

General
Complete name : 1. Installing and setting up a sessions package.mp4
Format : MPEG-4
Format profile : Base Media
Codec ID : isom (isom/iso2/avc1/mp41)
File size : 111 MiB
Duration : 14 min 52 s
Overall bit rate : 1 040 kb/s
Writing application : Lavf58.12.100

Video
ID : 1
Format : AVC
Format/Info : Advanced Video Codec
Format profile : Main@L3.1
Format settings : CABAC / 4 Ref Frames
Format settings, CABAC : Yes
Format settings, RefFrames : 4 frames
Format settings, GOP : M=4, N=60
Codec ID : avc1
Codec ID/Info : Advanced Video Coding
Duration : 14 min 52 s
Bit rate : 903 kb/s
Nominal bit rate : 3 000 kb/s
Width : 1 280 pixels
Height : 720 pixels
Display aspect ratio : 16:10
Frame rate mode : Constant
Frame rate : 30.000 FPS
Color space : YUV
Chroma subsampling : 4:2:0
Bit depth : 8 bits
Scan type : Progressive
Bits/(Pixel*Frame) : 0.033
Stream size : 96.0 MiB (87%)
Writing library : x264 core 148
Encoding settings : cabac=1 / ref=3 / deblock=1:0:0 / analyse=0x1:0x111 / me=umh / subme=6 / psy=1 / psy_rd=1.00:0.00 / mixed_ref=1 / me_range=16 / chroma_me=1 / trellis=1 / 8x8dct=0 / cqm=0 / deadzone=21,11 / fast_pskip=1 / chroma_qp_offset=-2 / threads=22 / lookahead_threads=3 / sliced_threads=0 / nr=0 / decimate=1 / interlaced=0 / bluray_compat=0 / constrained_intra=0 / bframes=3 / b_pyramid=2 / b_adapt=1 / b_bias=0 / direct=1 / weightb=1 / open_gop=0 / weightp=2 / keyint=60 / keyint_min=6 / scenecut=0 / intra_refresh=0 / rc_lookahead=60 / rc=cbr / mbtree=1 / bitrate=3000 / ratetol=1.0 / qcomp=0.60 / qpmin=0 / qpmax=69 / qpstep=4 / vbv_maxrate=3000 / vbv_bufsize=6000 / nal_hrd=none / filler=0 / ip_ratio=1.40 / aq=1:1.00

Audio
ID : 2
Format : AAC
Format/Info : Advanced Audio Codec
Format profile : LC
Codec ID : mp4a-40-2
Duration : 14 min 52 s
Duration_LastFrame : -1 ms
Bit rate mode : Constant
Bit rate : 128 kb/s
Channel(s) : 2 channels
Channel positions : Front: L R
Sampling rate : 44.1 kHz
Frame rate : 43.066 FPS (1024 SPF)
Compression mode : Lossy
Stream size : 13.6 MiB (12%)
Default : Yes
Alternate group : 1

Screenshots

Building Modern Web Applications with Go (Golang)

Building Modern Web Applications with Go (Golang)

Building Modern Web Applications with Go (Golang)

Building Modern Web Applications with Go (Golang)

Building Modern Web Applications with Go (Golang)

Exclusive eLearning Videos ParRus-blogadd to bookmarks

Building Modern Web Applications with Go (Golang)