Subcategories

Coursera: The Ohio State University - Calculus One [repost]

Posted By: ParRus
Coursera: The Ohio State University - Calculus One [repost]

Coursera: The Ohio State University - Calculus One
WEBRip | English | MP4 + PDF Slides | 960 x 540 | AVC ~354 kbps | 29.970 fps
AAC | 128 Kbps | 44.1 KHz | 2 channels | Subs: English (.srt) | 18:26:28 | 4.43 GB
Genre: eLearning Video / Mathematics

Calculus is about the very large, the very small, and how things change. The surprise is that something seemingly so abstract ends up explaining the real world. Calculus plays a starring role in the biological, physical, and social sciences. By focusing outside of the classroom, we will see examples of calculus appearing in daily life.
This course is a first and friendly introduction to calculus, suitable for someone who has never seen the subject before, or for someone who has seen some calculus but wants to review the concepts and practice applying those concepts to solve problems.

Courses list:


Week One: Limits
Week Two: Infinity and Continuity
Week Three: The Derivative
Week Four: Techniques of Differentiation
Week Five: The Chain Rule
Week Six: Derivatives of Transcendental Functions
Week Seven: Applications of Derivatives
Week Eight: Optimization
Week Nine: Linear Approximation
Week Ten: Antidifferentiation
Week Eleven: Integration
Week Twelve: Fundamental Theorem of Calculus
Week Thirteen: Techniques of Integration
Week Fourteen: The Substitution Rule
Week Fifteen: Volume

General
Complete name : 1 - 2 - 1.01 What is a function [1119].mp4
Format : MPEG-4
Format profile : Base Media
Codec ID : isom (isom/iso2/avc1/mp41)
File size : 39.7 MiB
Duration : 11mn 19s
Overall bit rate : 490 Kbps
Encoded date : UTC 1970-01-01 00:00:00
Tagged date : UTC 1970-01-01 00:00:00
Writing application : Lavf53.29.100

Video
ID : 1
Format : AVC
Format/Info : Advanced Video Codec
Format profile : High@L3.1
Format settings, CABAC : Yes
Format settings, ReFrames : 4 frames
Codec ID : avc1
Codec ID/Info : Advanced Video Coding
Duration : 11mn 19s
Bit rate : 354 Kbps
Width : 960 pixels
Height : 540 pixels
Display aspect ratio : 16:9
Frame rate mode : Constant
Frame rate : 29.970 (30000/1001) fps
Color space : YUV
Chroma subsampling : 4:2:0
Bit depth : 8 bits
Scan type : Progressive
Bits/(Pixel*Frame) : 0.023
Stream size : 28.7 MiB (72%)
Writing library : x264 core 120 r2120 0c7dab9
Encoding settings : cabac=1 / ref=3 / deblock=1:0:0 / analyse=0x3:0x113 / me=hex / subme=7 / psy=1 / psy_rd=1.00:0.00 / mixed_ref=1 / me_range=16 / chroma_me=1 / trellis=1 / 8x8dct=1 / cqm=0 / deadzone=21,11 / fast_pskip=1 / chroma_qp_offset=-2 / threads=12 / sliced_threads=0 / nr=0 / decimate=1 / interlaced=0 / bluray_compat=0 / constrained_intra=0 / bframes=3 / b_pyramid=2 / b_adapt=1 / b_bias=0 / direct=1 / weightb=1 / open_gop=0 / weightp=2 / keyint=250 / keyint_min=25 / scenecut=40 / intra_refresh=0 / rc_lookahead=40 / rc=crf / mbtree=1 / crf=28.0 / qcomp=0.60 / qpmin=0 / qpmax=69 / qpstep=4 / ip_ratio=1.40 / aq=1:1.00
Encoded date : UTC 1970-01-01 00:00:00
Tagged date : UTC 1970-01-01 00:00:00

Audio
ID : 2
Format : AAC
Format/Info : Advanced Audio Codec
Format profile : LC
Codec ID : 40
Duration : 11mn 19s
Bit rate mode : Constant
Bit rate : 128 Kbps
Channel(s) : 2 channels
Channel positions : Front: L R
Sampling rate : 44.1 KHz
Frame rate : 43.066 fps (1024 spf)
Compression mode : Lossy
Stream size : 10.4 MiB (26%)
Default : Yes
Alternate group : 1
Encoded date : UTC 1970-01-01 00:00:00
Tagged date : UTC 1970-01-01 00:00:00

Screenshots

Coursera: The Ohio State University - Calculus One [repost]

Coursera: The Ohio State University - Calculus One [repost]

Coursera: The Ohio State University - Calculus One [repost]

Coursera: The Ohio State University - Calculus One [repost]

Coursera: The Ohio State University - Calculus One [repost]

Coursera: The Ohio State University - Calculus One [repost]

For more Exclusive material, Visit my AH-blog

Coursera: The Ohio State University - Calculus One [repost]