Subcategories

Cisco CCNP Switch (300-115) Lab Manual All with GNS3 [repost]

Posted By: ParRus
Cisco CCNP Switch (300-115) Lab Manual All with GNS3 [repost]

Cisco CCNP Switch (300-115) Lab Manual All with GNS3
WEBRip | English | MP4 + Project Files | 1358 x 768 | AVC ~377 kbps | 30 fps
AAC | 61.3 Kbps | 44.1 KHz | 2 channels | 10:50:57 | 2.01 GB
Genre: Video Tutorial / IT & Software, IT Certification

This course is a about Cisco CCNP Switch Labs (Exam No 300-115). The course covers all CCNP Switch curriculum in the lab formats, and also complete descriptions.
This course is organized in 33 lectures and about 11 hours. Each lecture includes a file which accommodate lecture's scenario and executed commands.

You will find an extensive description at the first of each lecture followed by a practical lab so you have both demonstration and labs at your hand. The lectures are organized in a manner that take you step-by-step from beginning to the end.

After finishing this course you will be prepared for CCNP Switch 300-115 exam, and become familiar how to do their related exercises with GNS3.

What are the requirements?
Students should have CCNA R&S level of knowlege

What am I going to get from this course?
Over 34 lectures and 11 hours of content!
Be prepared for CCNP SWitch 300-115 Exam
Master in CCNP Switch topics

What is the target audience?
This course is suitable for students who want to take CCNP Switch exam and also network administrators

Curriculum
Section 1: Course Introduction
Lecture 1 Course Introduction 05:21
Section 2: Switching Basics
Lecture 2 Managing Switch Interfaces(Part 1) 12:53
Lecture 3 Managing Switch Interfaces(Part 2) 10:56
Lecture 4 CDP & LLDP 18:55
Section 3: VLAN Part
Lecture 5 VLAN Basics 14:42
Lecture 6 VLAN Trunking 27:55
Lecture 7 VTP 25:48
Lecture 8 VTP Pruning 14:37
Section 4: Spanning Tree Part
Lecture 9 STP Operation and Monitoring 29:10
Lecture 10 STP Root Bridge Selection 16:48
Lecture 11 Speed Up Traditional STP (Part1) 09:10
Lecture 12 Speed Up Traditional STP (Part2) 04:13
Lecture 13 Speed Up Traditional STP (Part3) 23:10
Lecture 14 Rapid Spanning Tree Protocol (RSTP) 14:53
Lecture 15 Multiple Spanning tree Protocol (MSTP) 31:31
Lecture 16 STP Root Guard 13:05
Lecture 17 STP BPDU Guard 06:24
Lecture 18 Etherchannel 27:21
Section 5: IP Part
Lecture 19 Inter-VLAN Routing 32:21
Lecture 20 IPv4 DHCP Server 25:01
Lecture 21 IPv6 DHCP Server 27:05
Lecture 22 FHRP with HSRP 37:54
Lecture 23 FHRP with VRRP 19:27
Lecture 24 FHRP with GLBP 23:09
Lecture 25 Object Tracking in FHRP 09:04
Section 6: Monitoring Part
Lecture 26 Configuring SNMP 24:11
Lecture 27 Configuring Syslog 15:25
Lecture 28 Configuring SPAN 16:20
Lecture 29 Configuring IP SLA 16:50
Section 7: Security Part
Lecture 30 Securing Switch Access 28:42
Lecture 31 802.1x Configuration 22:07
Lecture 32 AAA : Authentication 20:29
Lecture 33 AAA: Authorization 21:59
Lecture 34 AAA : Accounting 03:44

General
Complete name : 003 AAA Authentication.mp4
Format : MPEG-4
Format profile : Base Media
Codec ID : isom
File size : 64.6 MiB
Duration : 20mn 29s
Overall bit rate mode : Variable
Overall bit rate : 441 Kbps
Encoded date : UTC 2016-01-07 06:44:23
Tagged date : UTC 2016-01-07 06:44:23

Video
ID : 1
Format : AVC
Format/Info : Advanced Video Codec
Format profile : Baseline@L3.2
Format settings, CABAC : No
Format settings, ReFrames : 3 frames
Format settings, GOP : M=1, N=50
Codec ID : avc1
Codec ID/Info : Advanced Video Coding
Duration : 20mn 29s
Bit rate : 377 Kbps
Maximum bit rate : 5 484 Kbps
Width : 1 358 pixels
Height : 768 pixels
Display aspect ratio : 16:9
Frame rate mode : Constant
Frame rate : 30.000 fps
Color space : YUV
Chroma subsampling : 4:2:0
Bit depth : 8 bits
Scan type : Progressive
Bits/(Pixel*Frame) : 0.012
Stream size : 55.3 MiB (85%)
Writing library : Zencoder Video Encoding System
Encoded date : UTC 2016-01-07 06:42:28
Tagged date : UTC 2016-01-07 06:44:24

Audio
ID : 2
Format : AAC
Format/Info : Advanced Audio Codec
Format profile : LC
Codec ID : 40
Duration : 20mn 29s
Bit rate mode : Variable
Bit rate : 61.3 Kbps
Maximum bit rate : 71.0 Kbps
Channel(s) : 2 channels
Channel positions : Front: L R
Sampling rate : 44.1 KHz
Compression mode : Lossy
Stream size : 8.99 MiB (14%)
Encoded date : UTC 2016-01-07 06:42:28
Tagged date : UTC 2016-01-07 06:44:24

Screenshots

Cisco CCNP Switch (300-115) Lab Manual All with GNS3 [repost]

Cisco CCNP Switch (300-115) Lab Manual All with GNS3 [repost]

Cisco CCNP Switch (300-115) Lab Manual All with GNS3 [repost]

Cisco CCNP Switch (300-115) Lab Manual All with GNS3 [repost]

Cisco CCNP Switch (300-115) Lab Manual All with GNS3 [repost]

Exclusive eLearning Videos ParRus-blogadd to bookmarks

Cisco CCNP Switch (300-115) Lab Manual All with GNS3 [repost]