Subcategories

Clinical Sports Medicine DVD, By Peter Brukner and Karim Khan

Posted By: ParRus
Clinical Sports Medicine DVD, By Peter Brukner and Karim Khan

Clinical Sports Medicine DVD
DVDRip | AVI | English | 720 x 576 | XviD ~2198 kbps | 25 fps
MP3 ~128 Kbps | 44.1 KHz | 2 channels | 00:54:11 | 866 MB
Genre: eLearning Video / Health, Sport, Rehabilitation

Clinical Sports Medicine 3e DVD is an innovative learning tool to help clinicians, students and coaches with clinical examination and rehabilitation of sports-related and musculoskeletal injuries. With nearly an hour of footage, the DVD contains 12 detailed sequences showing assessment of key anatomical regions, tests, rehabilitation exercises and taping techniques.
Designed and conceived by the authors to be tightly integrated with the best-selling Clinical Sports Medicine book, the visual demonstrations combine theory with practice. Each segment has been designed using a step by step format to highlight the correct procedure, such as range of motion testing, precise palpation, special tests, stability testing and functional exercises.

SHOULDER

Clinical Examination - with Peter Brukner (4.20 m)
Shoulder Range of Motion; Resisted Movements; Lift Off Test; Impingement Test; Speed’s Test; Palpation; Instability Tests; Sulcus Sign; Scapular Assistance Test; Paxinos Test; O’Brien’s Test.
Rehabilitation - with Justin Steer (5.29 m)
Scapular Protraction and Retraction; Trampoline; Wand; Scapular Retraction; The Clock; Wall Push-Up; Scaption; Theraband; Ball-Throw; Closed Chain; Plyoball; Low Row; Lawnmower; The Hold-Up!; Inferior Glide

ELBOW

Clinical Examination - with Simon Bell (4.08 m)
Palpation; Range of Motion; Resisted Movement; Stability Testing

WRIST AND HAND

Clinical Examination – with Andrew Garnham (5.48 m)
Palpation; Watson’s Test; Finkelstein’s Test; Triangular Fibrocartilage Complex; Carpal Tunnel Syndrome

LOW BACK

Clinical Examination - with Peter Brukner (1.50 m)
Range of Motion; Palpation; Paraspinal Muscles; Intervertebral Joints; Sacroiliac Joints; Gluteal Trigger Joints

ACUTE KNEE

Clinical Examination - with Hayden Morris (4.35 m)
Testing for Effusion; Palpation; Stability Tests; MCL; LCL; Cruciate Ligaments; Lachman’s Test; Anterior Drawer Test; Pivot Shift Test; Postero-Lateral Instability; Patellar Apprehension Test; McMurray’s Test
Rehabilitation - with Randall Cooper (3.30 m)
Static VMO Quadriceps Contraction; Assisted Knee Flexion; Quadriceps Contraction; Calf Raises; Bridge; Theraband; Lunge; Arabesque Squat; Double Legged Squat; Single Leg Squat; Mini Trampoline Exercises; Wobble Board; Dura-Disc; Jump & Land; Plyometric Exercises; Agility Exercises

PATELLOFEMORAL

Clinical Examination – with Sallie Cowan (9.43 m)
Anterior Knee Pain Assessment; Palpation; Assessment of Flexibility; Thomas’s Test; Ober’s Test; Hip Range of Motion; Figure 4 Test
Rehabilitation - with Kay Crossley (6.15 m)
Patella Taping; Medial Glide; Medial Tilt; Rotation; Unloading Fat Pad; Inhibiting Vastus Lateralis; Soft Tissue Techniques; Dry Needling

PATELLAR TENDON

Watch a sample from this section

Rehabilitation - with Jill Cook (2.38 m)
Patellar Tendon Rehabilitation including use of the decline board.

ANKLE

Taping - with Justin Steer (2.33 m)
Taping of the Ankle; Figure 6; Figure 8; Heel Lock

LOWER LIMB BIOMECHANICS

Clinical Assessment – with Bec Moriarty (3.05 m)

also You can watch my other last: Rehabilitation-posts

General
Complete name : Shoulder.Clinical.Examination.avi
Format : AVI
Format/Info : Audio Video Interleave
File size : 73.8 MiB
Duration : 4mn 24s
Overall bit rate : 2 338 Kbps
Writing application : MEncoder SVN-r29352(20090610-gcc4.3.3)
Writing library : MPlayer

Video
ID : 0
Format : MPEG-4 Visual
Format profile : Advanced Simple@L5
Format settings, BVOP : 2
Format settings, QPel : No
Format settings, GMC : No warppoints
Format settings, Matrix : Default (H.263)
Codec ID : XVID
Codec ID/Hint : XviD
Duration : 4mn 24s
Bit rate : 2 198 Kbps
Width : 720 pixels
Height : 576 pixels
Display aspect ratio : 4:3
Frame rate : 25.000 fps
Standard : PAL
Color space : YUV
Chroma subsampling : 4:2:0
Bit depth : 8 bits
Scan type : Progressive
Compression mode : Lossy
Bits/(Pixel*Frame) : 0.212
Stream size : 69.3 MiB (94%)
Writing library : XviD 1.2.1 (UTC 2008-12-04)

Audio
ID : 1
Format : MPEG Audio
Format version : Version 1
Format profile : Layer 3
Mode : Joint stereo
Mode extension : MS Stereo
Codec ID : 55
Codec ID/Hint : MP3
Duration : 4mn 24s
Bit rate mode : Constant
Bit rate : 128 Kbps
Channel(s) : 2 channels
Sampling rate : 44.1 KHz
Compression mode : Lossy
Delay relative to video : 40ms
Stream size : 4.04 MiB (5%)
Alignment : Aligned on interleaves
Interleave, duration : 26 ms (0.65 video frame)
Interleave, preload duratio : 522 ms
Writing library : LAME3.98

Screenshots

Clinical Sports Medicine DVD, By Peter Brukner and Karim Khan

Clinical Sports Medicine DVD, By Peter Brukner and Karim Khan

Clinical Sports Medicine DVD, By Peter Brukner and Karim Khan

Clinical Sports Medicine DVD, By Peter Brukner and Karim Khan

Clinical Sports Medicine DVD, By Peter Brukner and Karim Khan

Clinical Sports Medicine DVD, By Peter Brukner and Karim Khan

Clinical Sports Medicine DVD, By Peter Brukner and Karim Khan

Clinical Sports Medicine DVD, By Peter Brukner and Karim Khan

Clinical Sports Medicine DVD, By Peter Brukner and Karim Khan

Clinical Sports Medicine DVD, By Peter Brukner and Karim Khan

Exclusive eLearning Videos ParRus-blogadd to bookmarks

Clinical Sports Medicine DVD, By Peter Brukner and Karim Khan