Subcategories

Russ Whitney: Commercial Real Estate Bootcamp (12 DVD-set)

Posted By: ParRus
Russ Whitney: Commercial Real Estate Bootcamp (12 DVD-set)

Russ Whitney: Commercial Real Estate Bootcamp
12xDVDRip | English | MP4 + PDF Manual | 720 x 480 | AVC ~1188 kbps | 30 fps
AAC | 176 Kbps | 48.0 KHz | 2 channels | 12:24:19 | 6.43 GB
Genre: eLearning Video / Real Estate, Property Develop

This complete set contains 12 video dvds with 1 cd-rom containing a printable commercial real estate training manual that follows the dvd course. The instructors in this series are russ whitney certified and the dvds follow a workshop format. Watch as the instructor demonstates how easy it is to select properties, analyze them for cash flow, and turn them into profits!
Includes:

Retail buzz words
Industrial property
Office property
Residential property
Tour of properties
Real estate cycle
Cash flow
Property analysis
Debt financing
Equity financing
Types of leases
Final analysis
Cd-rom with printable course manual

Excellent informational series that you can refer to over and over. train yourself, your associates in your office how to increase profits and reach your goals! You'll learn the differences between industrial, office, and residential properties. Follow the class as they take a tour of properties, and then completely analyze on of the potential investments.

also You can watch my other last: Business-posts

General
Complete name : dvd7.mp4
Format : MPEG-4
Format profile : Base Media / Version 2
Codec ID : mp42 (mp42/isom/avc1)
File size : 798 MiB
Duration : 1 h 21 min
Overall bit rate mode : Variable
Overall bit rate : 1 369 kb/s
Encoded date : UTC 2014-04-29 10:33:21
Tagged date : UTC 2014-04-29 11:00:32
Writing application : HandBrake 0.9.9 2013051800

Video
ID : 1
Format : AVC
Format/Info : Advanced Video Codec
Format profile : Main@L4
Format settings, CABAC : Yes
Format settings, ReFrames : 4 frames
Codec ID : avc1
Codec ID/Info : Advanced Video Coding
Duration : 1 h 21 min
Bit rate : 1 188 kb/s
Width : 720 pixels
Height : 480 pixels
Display aspect ratio : 4:3
Original display aspect ratio : 4:3
Frame rate mode : Constant
Frame rate : 29.970 (30000/1001) FPS
Standard : NTSC
Color space : YUV
Chroma subsampling : 4:2:0
Bit depth : 8 bits
Scan type : Progressive
Bits/(Pixel*Frame) : 0.115
Stream size : 693 MiB (87%)
Writing library : x264 core 130 r2273 b3065e6
Encoding settings : cabac=1 / ref=1 / deblock=1:0:0 / analyse=0x1:0x111 / me=hex / subme=2 / psy=1 / psy_rd=1.00:0.00 / mixed_ref=0 / me_range=16 / chroma_me=1 / trellis=0 / 8x8dct=0 / cqm=0 / deadzone=21,11 / fast_pskip=1 / chroma_qp_offset=0 / threads=3 / lookahead_threads=1 / sliced_threads=0 / nr=0 / decimate=1 / interlaced=0 / bluray_compat=0 / constrained_intra=0 / bframes=3 / b_pyramid=2 / b_adapt=1 / b_bias=0 / direct=1 / weightb=1 / open_gop=0 / weightp=1 / keyint=300 / keyint_min=30 / scenecut=40 / intra_refresh=0 / rc_lookahead=10 / rc=crf / mbtree=1 / crf=20.0 / qcomp=0.60 / qpmin=0 / qpmax=69 / qpstep=4 / vbv_maxrate=20000 / vbv_bufsize=25000 / crf_max=0.0 / nal_hrd=none / ip_ratio=1.40 / aq=1:1.00
Encoded date : UTC 2014-04-29 10:33:21
Tagged date : UTC 2014-04-29 11:00:32
Color range : Limited
Color primaries : BT.601 NTSC
Transfer characteristics : BT.709
Matrix coefficients : BT.601

Audio
ID : 2
Format : AAC
Format/Info : Advanced Audio Codec
Format profile : LC
Codec ID : 40
Duration : 1 h 21 min
Bit rate mode : Variable
Bit rate : 176 kb/s
Maximum bit rate : 239 kb/s
Channel(s) : 2 channels
Channel positions : Front: L R
Sampling rate : 48.0 kHz
Frame rate : 46.875 FPS (1024 spf)
Compression mode : Lossy
Stream size : 103 MiB (13%)
Title : Stereo
Encoded date : UTC 2014-04-29 10:33:21
Tagged date : UTC 2014-04-29 11:00:32
Screenshots

Russ Whitney: Commercial Real Estate Bootcamp (12 DVD-set)

Russ Whitney: Commercial Real Estate Bootcamp (12 DVD-set)

Russ Whitney: Commercial Real Estate Bootcamp (12 DVD-set)

Russ Whitney: Commercial Real Estate Bootcamp (12 DVD-set)

Russ Whitney: Commercial Real Estate Bootcamp (12 DVD-set)

Exclusive eLearning Videos ParRus-blogadd to bookmarks

Feel free to contact me PM
when links are dead or want any repost

Russ Whitney: Commercial Real Estate Bootcamp (12 DVD-set)