Subcategories

Dan Kennedy - Event Hacks [reduced]

Posted By: ParRus
Dan Kennedy - Event Hacks [reduced]

Dan Kennedy - Event Hacks
WEBRip | English | MP4 + MP3 + PDF Guides | 720 x 480 | MPEG-4 ~454 Kbps | 14.985 fps
AAC | 69 Kbps | 22.05 KHz | 2 channels | 05:23:44 | 1.67 GB
Genre: Video Tutorial / Business, Sales, Marketing

Dear Savvy Entrepreneur or Business Owner, Listen, it’s hard to attract top-quality customers these days. Sure, there are new ways to get customers through social media, Facebook and text messages, but you tend to get a “mixed bag” of customers. Some of them are motivated at getting results and will invest a lot of money with you through your high-ticket packages, but most of them aren’t serious, are price-resistant and will eventually leave you — perhaps to go to a competitor.
That leaves you constantly having to invest your valuable marketing dollars to replace the customers who left you. Plus you have to go through the PAIN of filtering out the good, motivated customers…and “throwing out” all the duds because you don’t have a system for separating your ideal, “slam dunk” customers from the rest.

But what if you possessed a time-tested and proven “secret strategy” that automatically attracts the “top 1%” of customers who are motivated to get results, forms a “virtual fence” around them so that they’ll never leave you, and easily moves them to your high-ticket packages without any buying resistance?

It’s All About Putting On LIVE Events — The Secret

“X-Factor” That GKIC Has Been Using For The Past 27 Years To Influence, Impact And Retain Customers

You see, putting on a LIVE event—whether it’s a large seminar, a small workshop, an intimate retreat, or something in between—is the most powerful marketing strategy you could possibly have in your arsenal.

For example, it enables you to quickly ascend your customers and clients into your high-priced programs. We regularly use our annual SuperConference℠, Info-SUMMIT℠, and our Fast Implementation Bootcamps to “move” our customers into our $12,000-and-up Coaching and Mastermind groups.

This would be virtually impossible if we ran things from a distance and stuck with the usual marketing tactics like email, social media, webinars, and direct mail.

Plus putting on LIVE events allows you to create better customers. A customer is far more likely to stay beyond a year, beyond two years, and beyond three years vs. if they just heard from you just through email, livecasts and social media.

For example, our “lifers”—people who have been with us for 5, 10, 15 even 20 years—have all attended our live events early on, and continue to attend them frequently.

Why? Because holding a live event allows your customers to get close to you and “bond” with you and your brand. This is a level of interaction and intimacy that simply cannot be replicated with livecasts, webinars, emails, and social media.

Event Hacks contains the keys to kingdom when it comes to planning, filling, and monetizing a powerhouse event. You’ll discover our EXACT blueprint-including action plans, budget worksheets, marketing strategies, and monetization strategies it would otherwise take you years to create and “figure out” on your own.

This is the official playbook we use every 2-3 months to fill our SuperConference℠, Info-SUMMIT℠, and Fast Implementation Bootcamps, that you can easily “copy and paste” for your own events. In other words, we’ve already done most of the “hard work” for you—just use what we’ve already invested years and millions of dollars to test, tweak and refine.

Imagine what it would be like to have a roomful of your “raving fans” who traveled either across town or across the country to see you. Just imagine how much bigger your bank account will look once you pulled off a blockbuster event.

And think about the “unfair advantage” you’ll get over your competitors who don’t have these proven Event Hacks—who aren’t going to add live events to their market mix.

You’ll be able to enjoy a pleasant, worry free, stress-free business life because you’ll have the most powerful marketing tool you’ll ever have that’ll allow you to get, retain, influence and “weed out” your top 1% customers from the rest of the pack…

…something that is almost impossible with practically any other marketing method!

HIGHLY RECOMMENDED
Price: $1497
More Info: Salepage


also You can find my other last: Business-posts

General
Complete name : 04. Lists and List Segmentation.mp4
Format : MPEG-4
Format profile : Base Media
Codec ID : isom (isom/iso2/mp41)
File size : 191 MiB
Duration : 50 min 49 s
Overall bit rate mode : Variable
Overall bit rate : 525 kb/s
Encoded date : UTC 1970-01-01 00:00:00
Tagged date : UTC 1970-01-01 00:00:00
Writing application : Lavf52.32.0

Video
ID : 1
Format : MPEG-4 Visual
Format profile : Simple@L1
Format settings, BVOP : No
Format settings, QPel : No
Format settings, GMC : No warppoints
Format settings, Matrix : Default (H.263)
Codec ID : 20
Duration : 50 min 49 s
Bit rate : 454 kb/s
Width : 720 pixels
Height : 480 pixels
Display aspect ratio : 16:9
Frame rate mode : Constant
Frame rate : 14.985 (14985/1000) FPS
Color space : YUV
Chroma subsampling : 4:2:0
Bit depth : 8 bits
Scan type : Progressive
Compression mode : Lossy
Bits/(Pixel*Frame) : 0.088
Stream size : 165 MiB (86%)
Writing library : Lavc52.22.3
Encoded date : UTC 1970-01-01 00:00:00
Tagged date : UTC 1970-01-01 00:00:00

Audio
ID : 2
Format : AAC
Format/Info : Advanced Audio Codec
Format profile : LC
Codec ID : 40
Duration : 50 min 49 s
Bit rate mode : Variable
Bit rate : 69.0 kb/s
Channel(s) : 2 channels
Channel positions : Front: L R
Sampling rate : 22.05 kHz
Frame rate : 21.533 FPS (1024 spf)
Compression mode : Lossy
Stream size : 25.1 MiB (13%)
Encoded date : UTC 1970-01-01 00:00:00
Tagged date : UTC 1970-01-01 00:00:00

Screenshots

Dan Kennedy - Event Hacks [reduced]

Dan Kennedy - Event Hacks [reduced]

Dan Kennedy - Event Hacks [reduced]

Dan Kennedy - Event Hacks [reduced]

Dan Kennedy - Event Hacks [reduced]

Exclusive eLearning Videos ParRus-blogadd to bookmarks

Feel free to contact me PM
when links are dead or want any repost

Dan Kennedy - Event Hacks [reduced]