Subcategories

Udacity - Data Structures and Algorithms Nanodegree (2019)

Posted By: ParRus
Udacity - Data Structures and Algorithms Nanodegree (2019)

Udacity - Data Structures and Algorithms Nanodegree (2019)
WEBRip | English | MP4 | 1280 x 720 | AVC ~1280 Kbps | 29.970 fps
AAC | 126 Kbps | 44.1 KHz | 2 channels | 07:49:24 | 2.15 GB
Genre: Video Tutorial

In this course you will learn data structures and algorithms by solving 80+ practice problems. You will begin each course by learning to solve defined problems related to a particular data structure and algorithm. By the end of each course, you would be able to evaluate and assess different data structures and algorithms for any open-ended problem and implement a solution based on your design choices.
Content:

Part 01- 01-Introduction
Part 01- 02-Python Refresher
Part 01- 03-How to Solve Problems
Part 01- 04-Efficiency
Part 01- 05-Unscramble Computer Science Problems
Part 02- 01-Arrays and Linked Lists
Part 02- 02-Stacks and Queues
Part 02- 03-Recursion
Part 02- 04-Trees
Part 02- 05-Maps and Hashing
Part 02- 06-Show Me the Data Structures
Part 03- 01-Basic Algorithms
Part 03- 02-Sorting Algorithms
Part 03- 03-Faster Divide Conquer Algorithms
Part 03- 04-Problems vs. Algorithms
Part 04- 01-Greedy Algorithms
Part 04- 02-Graph Algorithms
Part 04- 03-Dynamic Programming
Part 04- 04-A
Part 04- 05-Route Planner
Part 05- 01-Why Python Programming
Part 05- 02-Data Types and Operators
Part 05- 03-Data Structures
Part 05- 04-Control Flow
Part 05- 05-Functions
Part 05- 06-Scripting
Part 05- 07-Advanced Topics
Part 06- 01-Industry Research
Part 06- 02-Take 30 Min to Improve your LinkedIn
Part 06- 03-Optimize Your GitHub Profile
Part 07- 01-Technical Interview - Python

also You can find my other last: programming-posts

General
Complete name : 01. Pesquisa binária-0VN5iwEyq4c.mp4
Format : MPEG-4
Format profile : Base Media / Version 2
Codec ID : mp42 (isom/mp42)
File size : 14.7 MiB
Duration : 1 min 28 s
Overall bit rate mode : Variable
Overall bit rate : 1 396 kb/s
Encoded date : UTC 2016-08-25 14:47:30
Tagged date : UTC 2016-08-25 14:47:30
gsst : 0
gstd : 88491

Video
ID : 1
Format : AVC
Format/Info : Advanced Video Codec
Format profile : Main@L3.1
Format settings : CABAC / 3 Ref Frames
Format settings, CABAC : Yes
Format settings, RefFrames : 3 frames
Codec ID : avc1
Codec ID/Info : Advanced Video Coding
Duration : 1 min 28 s
Bit rate : 1 267 kb/s
Width : 1 280 pixels
Height : 720 pixels
Display aspect ratio : 16:9
Frame rate mode : Constant
Frame rate : 29.970 (30000/1001) FPS
Color space : YUV
Chroma subsampling : 4:2:0
Bit depth : 8 bits
Scan type : Progressive
Bits/(Pixel*Frame) : 0.046
Stream size : 13.4 MiB (91%)
Title : ISO Media file produced by Google Inc.
Encoded date : UTC 2016-08-25 14:47:30
Tagged date : UTC 2016-08-25 14:47:30
Color range : Limited
Color primaries : BT.709
Transfer characteristics : BT.709
Matrix coefficients : BT.709

Audio
ID : 2
Format : AAC
Format/Info : Advanced Audio Codec
Format profile : LC
Codec ID : mp4a-40-2
Duration : 1 min 28 s
Bit rate mode : Variable
Bit rate : 126 kb/s
Channel(s) : 2 channels
Channel positions : Front: L R
Sampling rate : 44.1 kHz
Frame rate : 43.066 FPS (1024 SPF)
Compression mode : Lossy
Stream size : 1.32 MiB (9%)
Title : ISO Media file produced by Google Inc.
Encoded date : UTC 2016-08-25 14:47:30
Tagged date : UTC 2016-08-25 14:47:30

Screenshots

Udacity - Data Structures and Algorithms Nanodegree (2019)

Udacity - Data Structures and Algorithms Nanodegree (2019)

Udacity - Data Structures and Algorithms Nanodegree (2019)

Udacity - Data Structures and Algorithms Nanodegree (2019)

Udacity - Data Structures and Algorithms Nanodegree (2019)

✅ Exclusive eLearning Videos ParRus-blogadd to bookmarks

Feel free to contact me PM
when links are dead or want any repost

Udacity - Data Structures and Algorithms Nanodegree (2019)