Subcategories

Draw With Confidence: From Basic To Brilliant [repost]

Posted By: ParRus
Draw With Confidence: From Basic To Brilliant [repost]

Draw With Confidence: From Basic To Brilliant
DVDRip | AVI | English | 720 x 480 | MPEG-4 ~1199 kbps | 29.970 fps
MP3 | 128 Kbps | 48.0 KHz | 2 channels | 02:36:02 | 1.46 GB
Genre: eLearning Video / Drawing, Painting

With this drawing instruction DVD you will learn to draw as David N. Kitler shows you how to us basic shapes, locate important value shifts, understand the role of different pencil grades to create depth, locate and accurately plot objects on a page, and properly position the parts of any object, be it animal or plant, to relate to the whole. David combines these fundamentals of how to draw with confidence to help you develop a center of interest and to lead viewers' eyes around your composition.
David N. Kitler shows you his straightforward method for observing and conveying the information critical to successful drawing. You will learn his process for capturing accurate likenesses in the wild or in the studio. This drawing instruction DVD, Draw with Confidence: from Basic to Brilliant, is for artists with beginning to intermediate skills.

also You can watch my other last: Drawing-posts

General
Complete name : Draw with Confidence.avi
Format : AVI
Format/Info : Audio Video Interleave
File size : 1.46 GiB
Duration : 2h 36mn
Overall bit rate : 1 341 Kbps

Video
ID : 0
Format : MPEG-4 Visual
Format profile : Simple@L1
Format settings, BVOP : No
Format settings, QPel : No
Format settings, GMC : No warppoints
Format settings, Matrix : Default (H.263)
Codec ID : DIVX
Codec ID/Info : Project Mayo
Codec ID/Hint : DivX 4
Duration : 2h 36mn
Source duration : 2h 36mn
Bit rate : 1 199 Kbps
Width : 720 pixels
Height : 480 pixels
Display aspect ratio : 4:3
Frame rate : 29.970 fps
Standard : NTSC
Color space : YUV
Chroma subsampling : 4:2:0
Bit depth : 8 bits
Scan type : Progressive
Compression mode : Lossy
Bits/(Pixel*Frame) : 0.116
Stream size : 1.31 GiB (89%)
Writing library : avc2.0.11.1110

Audio
ID : 1
Format : MPEG Audio
Format version : Version 1
Format profile : Layer 3
Mode : Joint stereo
Mode extension : MS Stereo
Codec ID : 55
Codec ID/Hint : MP3
Duration : 2h 36mn
Bit rate mode : Constant
Bit rate : 128 Kbps
Channel(s) : 2 channels
Sampling rate : 48.0 KHz
Compression mode : Lossy
Stream size : 143 MiB (10%)
Alignment : Aligned on interleaves
Interleave, duration : 24 ms (0.72 video frame)
Writing library : LAME3.96.1

Screenshots

Draw With Confidence: From Basic To Brilliant [repost]

Draw With Confidence: From Basic To Brilliant [repost]

Draw With Confidence: From Basic To Brilliant [repost]

Draw With Confidence: From Basic To Brilliant [repost]

Draw With Confidence: From Basic To Brilliant [repost]

Draw With Confidence: From Basic To Brilliant [repost]

Exclusive eLearning Videos ParRus-blogadd to bookmarks

Feel free to contact me PM
when links are dead or want any repost

Draw With Confidence: From Basic To Brilliant [repost]