Subcategories

Betty Edwards - Drawing On The Right Side Of The Brain [repost]

Posted By: ParRus
Betty Edwards - Drawing On The Right Side Of The Brain [repost]

Betty Edwards - Drawing On The Right Side Of The Brain
DVDRip | AVI | English | 640 x 480 | MPEG-4 ~468 kbps | 15 fps
PCM | 352 Kbps | 22.05 KHz | 1 channel | 01:57:03 | 692 MB
Genre: eLearning Video / Drawing, Painting

The work of Dr. Betty Edwards, author of Drawing on the Right Side of the Brain, has enabled millions of people around the world to learn to draw. Here, we will introduce you to her teaching technique, a little of the theory behind it, and to an exercise that demonstrates its effectiveness.
Dr. Betty Edwards’ drawing lessons on video/DVD are now available! The video or DVD are part of a complete Portfolio that includes all of the materials and tools you need to learn to draw in the comfort of your own home or to use in the classroom as an effective learning tool.

also You can watch: Fundamentals of Perspective

and my other last: Drawing-posts

General
Complete name : Betty Edwards - Drawing On The Right Side Of The Brain.avi
Format : AVI
Format/Info : Audio Video Interleave
File size : 692 MiB
Duration : 1h 57mn
Overall bit rate : 827 Kbps

Video
ID : 0
Format : MPEG-4 Visual
Format settings, BVOP : Yes
Format settings, QPel : No
Format settings, GMC : No warppoints
Format settings, Matrix : Default (H.263)
Codec ID : DIVX
Codec ID/Info : Project Mayo
Codec ID/Hint : DivX 4
Duration : 1h 57mn
Bit rate : 468 Kbps
Width : 640 pixels
Height : 480 pixels
Display aspect ratio : 4:3
Frame rate : 15.000 fps
Color space : YUV
Chroma subsampling : 4:2:0
Bit depth : 8 bits
Scan type : Progressive
Compression mode : Lossy
Bits/(Pixel*Frame) : 0.102
Stream size : 392 MiB (57%)

Audio
ID : 1
Format : PCM
Format settings, Endianness : Little
Format settings, Sign : Signed
Codec ID : 1
Duration : 1h 57mn
Bit rate mode : Constant
Bit rate : 352.8 Kbps
Channel(s) : 1 channel
Sampling rate : 22.05 KHz
Bit depth : 16 bits
Stream size : 295 MiB (43%)
Alignment : Aligned on interleaves
Interleave, duration : 67 ms (1.00 video frame)

Screenshots

Betty Edwards - Drawing On The Right Side Of The Brain [repost]

Betty Edwards - Drawing On The Right Side Of The Brain [repost]

Betty Edwards - Drawing On The Right Side Of The Brain [repost]

Betty Edwards - Drawing On The Right Side Of The Brain [repost]

Betty Edwards - Drawing On The Right Side Of The Brain [repost]

Betty Edwards - Drawing On The Right Side Of The Brain [repost]

Betty Edwards - Drawing On The Right Side Of The Brain [repost]

Exclusive eLearning Videos ParRus-blogadd to bookmarks

Feel free to contact me PM
when links are dead or want any repost

Betty Edwards - Drawing On The Right Side Of The Brain [repost]