Subcategories

Fibromyalgia Syndrome: A Practitioner's Guide to Treatment, Second Edition

Posted By: ParRus
Fibromyalgia Syndrome: A Practitioner's Guide to Treatment, Second Edition

Fibromyalgia Syndrome: A Practitioner's Guide to Treatment
DATA-DVD in ISO-Image | MPG + PDF Guidebook | English | 352 x 288 | MPEG Video ~1141 kbps | 25 fps
MPEG Audio ~224 Kbps | 48.0 KHz | 2 channels | 00:46:08 | 563 MB
Genre: eLearning Video / Health, Rehabilitation, Massage

Univ. of Westminster, London, UK. of Westminster, London, UK. Designed to help the practitioner identify FMS, provide a guide to all aspects of the syndrome, present a multidisciplinary view of the problems stemming from the condition, offer treatment options. Designed to help the practitioner identify FMS, provide a guide to all aspects of the syndrome, present a multidisciplinary view of the problems stemming from the condition, offer treatment options. Summarizes the latest research findings and relates them to clinical practice. Summarizes the latest research findings and relates them to clinical practice. For practitioners.
About the Author
Leon Chaitow ND DO is an internationally known and respected osteopathic and naturopathic practitioner and teacher of soft tissue manipulation methods of treatment. He is author of over 60 books, including a series on Advanced Soft Tissue Manipulation (Muscle Energy Techniques, Positional Release Techniques, Modern Neuromuscular Techniques) and also Palpation Skills; Cranial
Manipulation: Theory and Practice; Fibromyalgia Syndrome: A Practitioner’s Guide to Treatment, and many more. He is editor of the peer reviewed Journal of Bodywork and Movement Therapies, that offers a multidisciplinary perspective on physical methods of patient care. Leon Chaitow was for many years senior lecturer on the Therapeutic Bodywork degree courses which he helped to design at the School of Integrated Health, University of Westminster, London, where is he now an Honorary Fellow. He continues to teach and practice part-time in London, when not in Corfu, Greece where he focuses on his writing.

Includes PDF workbook: ISBN: 0443072191

also You can watch my other last: Rehabilitation-posts

General
Complete name : X12.mpg
Format : MPEG-PS
File size : 49.6 MiB
Duration : 4mn 58s
Overall bit rate : 1 393 Kbps

Video
ID : 224 (0xE0)
Format : MPEG Video
Format version : Version 1
Format settings, BVOP : Yes
Format settings, Matrix : Default
Format settings, GOP : M=3, N=15
Duration : 4mn 58s
Bit rate : 1 141 Kbps
Maximum bit rate : 1 123 Kbps
Width : 352 pixels
Height : 288 pixels
Display aspect ratio : 4:3
Frame rate : 25.000 fps
Standard : PAL
Color space : YUV
Chroma subsampling : 4:2:0
Bit depth : 8 bits
Scan type : Progressive
Compression mode : Lossy
Bits/(Pixel*Frame) : 0.450
Time code of first frame : 00:00:00:00
Time code source : Group of pictures header
Stream size : 40.6 MiB (82%)

Audio
ID : 192 (0xC0)
Format : MPEG Audio
Format version : Version 1
Format profile : Layer 2
Duration : 4mn 58s
Bit rate mode : Constant
Bit rate : 224 Kbps
Channel(s) : 2 channels
Sampling rate : 48.0 KHz
Compression mode : Lossy
Stream size : 7.97 MiB (16%)

Screenshots

Fibromyalgia Syndrome: A Practitioner's Guide to Treatment, Second Edition

Fibromyalgia Syndrome: A Practitioner's Guide to Treatment, Second Edition

Fibromyalgia Syndrome: A Practitioner's Guide to Treatment, Second Edition

Fibromyalgia Syndrome: A Practitioner's Guide to Treatment, Second Edition

Fibromyalgia Syndrome: A Practitioner's Guide to Treatment, Second Edition

Fibromyalgia Syndrome: A Practitioner's Guide to Treatment, Second Edition

Exclusive eLearning Videos ParRus-blogadd to bookmarks

Fibromyalgia Syndrome: A Practitioner's Guide to Treatment, Second Edition