Subcategories

TeamTreeHouse - Front-end Web Development

Posted By: ParRus
TeamTreeHouse - Front-end Web Development

TeamTreeHouse - Front-end Web Development
WEBRip | English | MP4 + Project files | 1280 x 720 | AVC ~210 kbps | 29.970 fps
AAC | 54.4 Kbps | 48.0 KHz | 2 channels | Subs: English (.srt) | ~60 hours | 5.92 GB
Genre: Video Tutorial / Development, Programming

This is the Complete Track of Front End Web Development. Learn programming with JavaScript & jQuery. Use JavaScript to modify static HTML and CSS.
Includes:

01.HTML-Course - How to Make a Website

02.CSS-Course - CSS Basics

03.JavaScript-Course - JavaScript Basics

04.CSS-Course - CSS Layout Basics

05.CSS-Course - Responsive Layouts

06.CSS-Course - CSS Flexbox Layout

07.HTML-Course - HTML Forms

08.JavaScript-Course - JavaScript Loops, Arrays and Objects

09.CSS-Course - CSS Selectors

10.JavaScript-Course - jQuery Basics

11.HTML-Course - HTML Tables

12.JavaScript-Course - Interactive Web Pages with JavaScript

13.HTML-Course - HTML Video and Audio

14.JavaScript-Course - AJAX Basics

15.JavaScript-Course - Object-Oriented JavaScript

16.HTML-Course - Accessibility

17.Development-Tools-Course - Website Optimization

18.Development-Tools-Course - Console Foundations

19.Development-Tools-Course - Git Basics

20.Development-Tools-Course - Front End Performance Optimization

also You can watch my other last: Programming-posts

General
Complete name : Gradients.mp4
Format : MPEG-4
Format profile : Base Media
Codec ID : isom
File size : 14.1 MiB
Duration : 7mn 23s
Overall bit rate mode : Variable
Overall bit rate : 267 Kbps
Encoded date : UTC 2014-12-08 16:21:52
Tagged date : UTC 2014-12-08 16:21:52

Video
ID : 1
Format : AVC
Format/Info : Advanced Video Codec
Format profile : Baseline@L3.1
Format settings, CABAC : No
Format settings, ReFrames : 3 frames
Codec ID : avc1
Codec ID/Info : Advanced Video Coding
Duration : 7mn 23s
Bit rate : 210 Kbps
Maximum bit rate : 1 529 Kbps
Width : 1 280 pixels
Height : 720 pixels
Display aspect ratio : 16:9
Frame rate mode : Constant
Frame rate : 29.970 fps
Color space : YUV
Chroma subsampling : 4:2:0
Bit depth : 8 bits
Scan type : Progressive
Bits/(Pixel*Frame) : 0.008
Stream size : 11.1 MiB (79%)
Writing library : Zencoder Video Encoding System
Encoded date : UTC 2014-12-08 16:21:15
Tagged date : UTC 2014-12-08 16:21:52
Color primaries : BT.709-5, BT.1361, IEC 61966-2-4, SMPTE RP177
Transfer characteristics : BT.709-5, BT.1361
Matrix coefficients : BT.709-5, BT.1361, IEC 61966-2-4 709, SMPTE RP177

Audio
ID : 2
Format : AAC
Format/Info : Advanced Audio Codec
Format profile : LC
Codec ID : 40
Duration : 7mn 23s
Bit rate mode : Variable
Bit rate : 54.4 Kbps
Maximum bit rate : 65.5 Kbps
Channel(s) : 2 channels
Channel positions : Front: L R
Sampling rate : 48.0 KHz
Compression mode : Lossy
Stream size : 2.88 MiB (20%)
Encoded date : UTC 2014-12-08 16:21:52
Tagged date : UTC 2014-12-08 16:21:52

Screenshots

TeamTreeHouse - Front-end Web Development

TeamTreeHouse - Front-end Web Development

TeamTreeHouse - Front-end Web Development

Exclusive eLearning Videos ParRus-blogadd to bookmarks

TeamTreeHouse - Front-end Web Development