Subcategories

Hal Leonard: Guitar Play-Along: Volume 14 - Rock Classics

Posted By: ParRus
Hal Leonard: Guitar Play-Along: Volume 14 - Rock Classics

Hal Leonard: Guitar Play-Along: Volume 14 - Rock Classics
DVDRip | English | MKV | 672 x 368 | MPEG-4 ~2941 kbps | 29.970 fps
AC-3 192 Kbps 48.0 KHz | 2 channels | 01:00:59 | 914 MB
Genre: eLearning Video / Guitar lesson

The Guitar Play-Along DVD series lets you hear and see how to play songs like never before. Just watch, listen and learn! Each song starts with a lesson from a professional guitar teacher. Then, the teacher performs the complete song along with professionally recorded backing tracks. You can choose to turn the guitar off if you want to play along, or leave the guitar in the mix to hear how it should sound.
Each DVD includes great songs that all guitarists will want to know! Volume 14 includes:
• Born to Be Wild
• Don't Fear the Reaper
• Free Bird
• Hit Me with Your Best Shot
• Jump, Jive An' Wail
• Mony, Mony
• Rocky Mountain Way
• Takin' Care of Business.

also You can find my other last: Guitar Lessons-posts

General
Unique ID : Free_Bird_-_Performance_&_Jam_Track.mkv
Format : Matroska
Format version : Version 2
File size : 190 MiB
Duration : 9 min 1 s
Overall bit rate : 2 941 kb/s
Encoded date : UTC 2012-09-09 07:03:31
Writing application : mkvmerge v2.9.7 ('Tenderness') built on Jul 1 2009 18:43:35
Writing library : libebml v0.7.7 + libmatroska v0.8.1

Video #1
ID : 1
Format : MPEG-4 Visual
Format profile : Advanced Simple@L5
Format settings, BVOP : 1
Format settings, QPel : No
Format settings, GMC : No warppoints
Format settings, Matrix : Default (MPEG)
Codec ID : V_MS/VFW/FOURCC / XVID
Codec ID/Hint : XviD
Duration : 9 min 1 s
Width : 672 pixels
Height : 368 pixels
Display aspect ratio : 1.85:1
Frame rate mode : Constant
Frame rate : 29.970 (30000/1001) FPS
Color space : YUV
Chroma subsampling : 4:2:0
Bit depth : 8 bits
Scan type : Progressive
Compression mode : Lossy
Title : fret hand + tab
Writing library : XviD 64
Default : Yes
Forced : No

Video #2
ID : 2
Format : MPEG-4 Visual
Format profile : Advanced Simple@L5
Format settings, BVOP : 1
Format settings, QPel : No
Format settings, GMC : No warppoints
Format settings, Matrix : Default (MPEG)
Codec ID : V_MS/VFW/FOURCC / XVID
Codec ID/Hint : XviD
Duration : 9 min 1 s
Width : 672 pixels
Height : 368 pixels
Display aspect ratio : 1.85:1
Frame rate mode : Constant
Frame rate : 29.970 (30000/1001) FPS
Color space : YUV
Chroma subsampling : 4:2:0
Bit depth : 8 bits
Scan type : Progressive
Compression mode : Lossy
Title : both hands + tab
Writing library : XviD 64
Default : No
Forced : No

Video #3
ID : 3
Format : MPEG-4 Visual
Format profile : Advanced Simple@L5
Format settings, BVOP : 1
Format settings, QPel : No
Format settings, GMC : No warppoints
Format settings, Matrix : Default (MPEG)
Codec ID : V_MS/VFW/FOURCC / XVID
Codec ID/Hint : XviD
Duration : 9 min 1 s
Width : 672 pixels
Height : 368 pixels
Display aspect ratio : 1.85:1
Frame rate mode : Constant
Frame rate : 29.970 (30000/1001) FPS
Color space : YUV
Chroma subsampling : 4:2:0
Bit depth : 8 bits
Scan type : Progressive
Compression mode : Lossy
Title : pick hand close-up
Writing library : XviD 64
Default : No
Forced : No

Audio #1
ID : 4
Format : AC-3
Format/Info : Audio Coding 3
Format settings, Endianness : Big
Codec ID : A_AC3
Duration : 9 min 1 s
Bit rate mode : Constant
Bit rate : 192 kb/s
Channel(s) : 2 channels
Channel positions : Front: L R
Sampling rate : 48.0 kHz
Frame rate : 31.250 FPS (1536 spf)
Bit depth : 16 bits
Compression mode : Lossy
Stream size : 12.4 MiB (7%)
Title : performance
Service kind : Complete Main
Default : Yes
Forced : No

Audio #2
ID : 5
Format : AC-3
Format/Info : Audio Coding 3
Format settings, Endianness : Big
Codec ID : A_AC3
Duration : 9 min 1 s
Bit rate mode : Constant
Bit rate : 192 kb/s
Channel(s) : 2 channels
Channel positions : Front: L R
Sampling rate : 48.0 kHz
Frame rate : 31.250 FPS (1536 spf)
Bit depth : 16 bits
Compression mode : Lossy
Stream size : 12.4 MiB (7%)
Title : jam track
Service kind : Complete Main
Default : No
Forced : No
Screenshots

Hal Leonard: Guitar Play-Along: Volume 14 - Rock Classics

Hal Leonard: Guitar Play-Along: Volume 14 - Rock Classics

Hal Leonard: Guitar Play-Along: Volume 14 - Rock Classics

Hal Leonard: Guitar Play-Along: Volume 14 - Rock Classics

Exclusive eLearning Videos ParRus-blogadd to bookmarks

Feel free to contact me PM
when links are dead or want any repost

Hal Leonard: Guitar Play-Along: Volume 14 - Rock Classics