Subcategories

The Healing Field - Exploring Energy and Consciousness

Posted By: ParRus
The Healing Field - Exploring Energy and Consciousness

The Healing Field - Exploring Energy and Consciousness
DVD5 | English | VIDEO_TS | 720 x 480 | AVC ~5879 Kbps | 29.970 fps
AC-3 | 192 Kbps | 48.0 KHz | 2 channels | Subs: English | 01:38:46 | 4.18 GB
Genre: eLearning Video / Health

The Healing Field explores breakthroughs in the fields of energy medicine, quantum physics, DNA and genetics, and the biochemistry of emotions. We see how the old conventional healthcare models, that have relied on surgery and prescription drugs are being challenged by a wave of dramatic, non-invasive mind-body and energy-based healing techniques. While many of these techniques are centuries old, they are now generating worldwide studies with remarkable results. We ll meet world-class experts, as well as acclaimed mind-body and energy-medicine practitioners, and witness inspiring personal stories. We ll explore how this quantum shift in understanding is affecting our health, our society, and our future.
Our renowned experts and best-selling authors include:

Bruce Lipton, PhD–Cellular Biologist, pre-eminent scientist in quantum physics, DNA and cell biology, and author of best-sellers The Biology of Belief and Spontaneous Evolution.

Lynne McTaggart–Leading spokesperson on consciousness and the new physics, and award-winning author of six books, including the best-sellers, The Field and The Intention Experiment.

The late Candace Pert, PhD–World-class neuroscientist and pharmacologist, expert in Mind-body Medicine, and author of The Molecules of Emotion.

Beverly Rubik, PhD–Biophysicist and Pres. of the Institute for Frontier Science in San Francisco, CA.

Hyla Cass, MD–Psychiatrist, leading expert in integrative Medicine, and author of ten popular books, including Eight Weeks to Vibrant Health.

Ron Lavin, MA–Founder of One Light Healing Touch, an International Energy healing School, has participated in five landmark studies with the National Institutes of Health.

Ken Cohen–Qigong Master, renowned China scholar, health educator, and best-selling author of The Way of Qigong.

Gerry Epstein, MD–Psychiatrist, leading pioneer in mental Imagery, and author of seven books, including the best-seller, Healing Visualizations.

also You can find my other last: Health-posts

General
Complete name : VTS_01_4.VOB
Format : MPEG-PS
File size : 625 MiB
Duration : 14 min 6 s
Overall bit rate mode : Variable
Overall bit rate : 6 194 kb/s

Video
ID : 224 (0xE0)
Format : MPEG Video
Format version : Version 2
Format profile : Main@Main
Format settings, BVOP : Yes
Format settings, Matrix : Custom
Format settings, GOP : M=3, N=15
Duration : 14 min 6 s
Bit rate mode : Variable
Bit rate : 5 879 kb/s
Maximum bit rate : 8 800 kb/s
Width : 720 pixels
Height : 480 pixels
Display aspect ratio : 16:9
Frame rate : 29.970 (30000/1001) FPS
Standard : NTSC
Color space : YUV
Chroma subsampling : 4:2:0
Bit depth : 8 bits
Scan type : Progressive
Compression mode : Lossy
Bits/(Pixel*Frame) : 0.568
Time code of first frame : 01:08:15;19
Time code source : Group of pictures header
GOP, Open/Closed : Closed
Stream size : 593 MiB (95%)
Color primaries : BT.601 NTSC
Transfer characteristics : BT.601
Matrix coefficients : BT.601

Audio
ID : 189 (0xBD)-128 (0x80)
Format : AC-3
Format/Info : Audio Coding 3
Format settings, Endianness : Big
Muxing mode : DVD-Video
Duration : 14 min 6 s
Bit rate mode : Constant
Bit rate : 192 kb/s
Channel(s) : 2 channels
Channel positions : Front: L R
Sampling rate : 48.0 kHz
Frame rate : 31.250 FPS (1536 spf)
Bit depth : 16 bits
Compression mode : Lossy
Delay relative to video : -488 ms
Stream size : 19.4 MiB (3%)
Service kind : Complete Main

Text
ID : 224 (0xE0)-CC3
Format : EIA-608
Muxing mode, more info : Muxed in Video #1
Duration : 14 min 6 s
Bit rate mode : Constant
Stream size : 0.00 Byte (0%)
CaptionServiceName : CC3

Menu

Screenshots

The Healing Field - Exploring Energy and Consciousness

The Healing Field - Exploring Energy and Consciousness

The Healing Field - Exploring Energy and Consciousness

The Healing Field - Exploring Energy and Consciousness

The Healing Field - Exploring Energy and Consciousness

The Healing Field - Exploring Energy and Consciousness

Exclusive eLearning Videos ParRus-blogadd to bookmarks

Feel free to contact me PM
when links are dead or want any repost

The Healing Field - Exploring Energy and Consciousness