Subcategories

How to Build a Hendershot Generator + Bonus Free Energy Manuals

Posted By: ParRus
How to Build a Hendershot Generator + Bonus Free Energy Manuals

How to Build a Hendershot Generator + Bonus Free Energy Manuals
WEBRip | English | MP4 + PDF Guides | 720 x 406 | AVC ~825 kbps | 29.970 fps
AAC | 128 Kbps | 48.0 KHz | 2 channels | 05:03:21 | 2.46 GB
Genre: eLearning Video / Engineering and Technology, Electronics, Do-It-Yourself

This is a tutorial on how to build a specific type of generator known as a Hendershot generator. This fuel-less generator is a device that is understood to function without the need for a wired power source. Strictly speaking, a fuel-less generator is not self-powered, but since it doesn’t burn fuel of any kind, in everyday language it can be described as self-powered. It claims to extract energy from the air, so it doesn't violate the rules of thermodynamics.
The Main Folder contains: 3 x PDF, 1 x MP4

The Hendershot Book
Hendershot Parts List
Schematics
Video Guide


The Bonus Folder contains: 6 x PDF

Cook From Sun Energy
Earth Batteries
High Efficiency Generators
Induction Generation
Noel Water Heater
Tornado Generator


The Bowman Motor Folder contains 1 x PDF, 8 x MP4

The Platinum Folder contains: 6 x PDF

Free EnergyFrom the Earth
Free Energy From the Sky
Homemade Solar Cells
Kelvin Generator
Micro Wind Power
Permanent Magnet Generator


also You can look my other last: Homebuilding-posts

General
Complete name : hendershot_video_guide.mp4
Format : MPEG-4
Format profile : Base Media / Version 2
Codec ID : mp42
File size : 1 006 MiB
Duration : 2h 26mn
Overall bit rate mode : Variable
Overall bit rate : 958 Kbps
Encoded date : UTC 2012-11-03 00:03:40
Tagged date : UTC 2012-11-03 00:03:40

Video
ID : 2
Format : AVC
Format/Info : Advanced Video Codec
Format profile : High@L4.0
Format settings, CABAC : Yes
Format settings, ReFrames : 2 frames
Format settings, GOP : M=2, N=15
Muxing mode : Container profile=Main@3.0
Codec ID : avc1
Codec ID/Info : Advanced Video Coding
Duration : 2h 26mn
Bit rate mode : Variable
Bit rate : 825 Kbps
Maximum bit rate : 1 000 Kbps
Width : 720 pixels
Height : 406 pixels
Display aspect ratio : 16:9
Frame rate mode : Constant
Frame rate : 29.970 fps
Color space : YUV
Chroma subsampling : 4:2:0
Bit depth : 8 bits
Scan type : Progressive
Bits/(Pixel*Frame) : 0.094
Stream size : 866 MiB (86%)
Language : English
Encoded date : UTC 2012-11-03 00:03:40
Tagged date : UTC 2012-11-03 00:03:40

Audio
ID : 1
Format : AAC
Format/Info : Advanced Audio Codec
Format profile : LC
Codec ID : 40
Duration : 2h 26mn
Bit rate mode : Constant
Bit rate : 128 Kbps
Channel(s) : 2 channels
Channel positions : Front: L R
Sampling rate : 48.0 KHz
Compression mode : Lossy
Delay relative to video : 33ms
Stream size : 134 MiB (13%)
Language : English
Encoded date : UTC 2012-11-03 00:03:40
Tagged date : UTC 2012-11-03 00:03:40
Screenshots

How to Build a Hendershot Generator + Bonus Free Energy Manuals

How to Build a Hendershot Generator + Bonus Free Energy Manuals

How to Build a Hendershot Generator + Bonus Free Energy Manuals

How to Build a Hendershot Generator + Bonus Free Energy Manuals

How to Build a Hendershot Generator + Bonus Free Energy Manuals

How to Build a Hendershot Generator + Bonus Free Energy Manuals

How to Build a Hendershot Generator + Bonus Free Energy Manuals

Exclusive eLearning Videos ParRus-blogadd to bookmarks

How to Build a Hendershot Generator + Bonus Free Energy Manuals