Subcategories

Ice Cold System - Jason Capital

Posted By: ParRus
Ice Cold System - Jason Capital

Ice Cold System - Jason Capital
WEBRip | English | FLV + MP3 | 1280 x 720 | AVC ~2500 kbps | 29.970 fps
AAC 126 Kbps 44.1 KHz | 2 channels | 00:33:21 | 659 MB
Genre: eLearning Video / Dating, Relationships, Sex, Psychology

Jason Capital has been an influential part of the seduction industry and coaching guys for almost 5 years. Since developing his "honest" style of picking up women from his own personal experiences, Jason continues to build upon his expertise and focusing on a great social and business life. His well-established Jason Capital Dating business and popular daily newsletter are a result of his drive to keep delivering value in order to be successful. Jason is on a mission: Help more than 100,000 guys change their lives for the better – romantically, socially, and other otherwise.
Ever have the problem of freezing before you go talk to that really hot girl. Let's install some ICE water into those veins and unlock your dominance.

also:
Jason Capital - Status
Jason Capital – Mental Dominance
Jason Capital - The Storytelling God System
Jason Capital - Power Influence System
Jason Capital - Status Unleashed (2017)
70 Laws - Jason Capital


and You can find my other last: Relationship-posts

General
Complete name : Component #1 Complete ICE COLD Video Training.flv
Format : Flash Video
File size : 588 MiB
Duration : 31mn 10s
Overall bit rate : 2 639 Kbps
Writing application : Wistia
Tagging application : Yet Another Metadata Injector for FLV - Version 2.0

Video
Format : AVC
Format/Info : Advanced Video Codec
Format profile : High@L3.1
Format settings, CABAC : Yes
Format settings, ReFrames : 4 frames
Codec ID : 7
Duration : 31mn 10s
Bit rate : 2 500 Kbps
Width : 1 280 pixels
Height : 720 pixels
Display aspect ratio : 16:9
Frame rate mode : Constant
Frame rate : 29.970 (29970/1000) fps
Color space : YUV
Chroma subsampling : 4:2:0
Bit depth : 8 bits
Scan type : Progressive
Bits/(Pixel*Frame) : 0.091
Stream size : 558 MiB (95%)
Writing library : x264 core 142 r2491 24e4fed
Encoding settings : cabac=1 / ref=2 / deblock=1:0:0 / analyse=0x3:0x113 / me=hex / subme=6 / psy=1 / psy_rd=1.00:0.00 / mixed_ref=1 / me_range=16 / chroma_me=1 / trellis=0 / 8x8dct=1 / cqm=0 / deadzone=21,11 / fast_pskip=1 / chroma_qp_offset=-2 / threads=12 / lookahead_threads=2 / sliced_threads=0 / nr=0 / decimate=1 / interlaced=0 / bluray_compat=0 / constrained_intra=0 / bframes=3 / b_pyramid=2 / b_adapt=1 / b_bias=0 / direct=3 / weightb=1 / open_gop=0 / weightp=2 / keyint=250 / keyint_min=25 / scenecut=40 / intra_refresh=0 / rc_lookahead=40 / rc=2pass / mbtree=1 / bitrate=2500 / ratetol=1.0 / qcomp=0.60 / qpmin=10 / qpmax=51 / qpstep=4 / cplxblur=20.0 / qblur=0.5 / ip_ratio=1.41 / aq=1:1.00

Audio
Format : AAC
Format/Info : Advanced Audio Codec
Format profile : LC
Codec ID : 10
Duration : 31mn 10s
Bit rate : 126 Kbps
Channel(s) : 2 channels
Channel positions : Front: L R
Sampling rate : 44.1 KHz
Frame rate : 43.066 fps (1024 spf)
Compression mode : Lossy
Delay relative to video : 20ms
Stream size : 29.5 MiB (5%)
Screenshots

Ice Cold System - Jason Capital

Ice Cold System - Jason Capital

Ice Cold System - Jason Capital

Exclusive eLearning Videos ParRus-blogadd to bookmarks

Feel free to contact me PM
when links are dead or want any repost

Ice Cold System - Jason Capital