Subcategories

Guitar World: In Deep - How To Play Like with Andy Aledort [repost]

Posted By: ParRus
Guitar World: In Deep - How To Play Like with Andy Aledort [repost]

Guitar World: In Deep - How To Play Like
DVD5 | VIDEO_TS + PDF Guides | 720 x 480 | MPEG2~7683 kbps | 29.970 fps
AC-3 192 Kbps 48.0 KHz | 2 channels | 01:04:00 | 3.57 GB
Genre: eLearning Video / Guitar lesson

A Longtime contributor to Guitar World magazine and the author and producer of literally hundreds of artist transcriptions, books, and instructional DVDs, Andy Aledort has influenced and inspired guitarists around the world for many years.
During his tenure at Guitar World, Aledort has written lesson features on players such as Eric Clapton, Eddie Van Halen, Jimi Hendrix, Jimmy Page, Dimebag Darrell, and Yngwie Malmsteen, among others. He has also created many of Guitar World's best-selling instructional DVDs, including Play Rock Guitar, How to Play Hard Rock and Heavy Metal, and How to Play the Jimi Hendrix Experience's Axis: Bold as Love.
As a guitarist, he has worked live and in the studio with Jimi Hendrix Experience drummer Mitch Mitchell and the Band of Gypsys rhythm section of bassist Billy Cox and drummer Buddy Miles.
Aledort has been a member of original Allman Brothers Band guitarist Dickey Betts' band, Great Southern, and performed with Buddy Guy, Double Trouble, Paul Rodgers and many other rock and blues legends.

Lessons include:

Keith Richards–style rhythm alternating between G and G6, G and Gadd2, and more
Riffs in the style of “Tumbling Dice,” “19th Nervous Breakdown,” “Start Me Up,” “Happy,” “Brown Sugar,” “It’s Only Rock ’n Roll,” “Jumpin’ Jack Flash” and more
Richards-style rhythm in 12-bar-blues form
Using the styles of Jimi Hendrix (“Who Knows”), Jimmy Page (“Black Mountain Side”/“White Summer”), Billy Gibbons (“La Grange”), T-Bone Walker (“Stormy Monday”), Django Reinhardt (“Minor Swing”) and many others
Open-position G chord forms
Open-D tuning with different chord voicings
And More!

also You can look my other last: Guitar Lessons-posts

General
Complete name : VTS_01_1.VOB
Format : MPEG-PS
File size : 1 024 MiB
Duration : 17mn 48s
Overall bit rate mode : Variable
Overall bit rate : 8 035 Kbps

Video
ID : 224 (0xE0)
Format : MPEG Video
Format version : Version 2
Format profile : Main@Main
Format settings, BVOP : Yes
Format settings, Matrix : Custom
Format settings, GOP : M=3, N=12
Duration : 17mn 48s
Bit rate mode : Variable
Bit rate : 7 683 Kbps
Maximum bit rate : 9 000 Kbps
Width : 720 pixels
Height : 480 pixels
Display aspect ratio : 16:9
Frame rate : 29.970 (30000/1001) fps
Standard : NTSC
Color space : YUV
Chroma subsampling : 4:2:0
Bit depth : 8 bits
Scan type : Progressive
Compression mode : Lossy
Bits/(Pixel*Frame) : 0.742
Time code of first frame : 00:00:00;00
Time code source : Group of pictures header
GOP, Open/Closed : Closed
Stream size : 979 MiB (96%)
Color primaries : BT.601 NTSC
Transfer characteristics : BT.601
Matrix coefficients : BT.601

Audio
ID : 189 (0xBD)-128 (0x80)
Format : AC-3
Format/Info : Audio Coding 3
Mode extension : CM (complete main)
Format settings, Endianness : Big
Muxing mode : DVD-Video
Duration : 17mn 48s
Bit rate mode : Constant
Bit rate : 192 Kbps
Channel(s) : 2 channels
Channel positions : Front: L R
Sampling rate : 48.0 KHz
Frame rate : 31.250 fps (1536 spf)
Compression mode : Lossy
Stream size : 24.5 MiB (2%)
Menu
Screenshots

Guitar World: In Deep - How To Play Like with Andy Aledort [repost]

Guitar World: In Deep - How To Play Like with Andy Aledort [repost]

Guitar World: In Deep - How To Play Like with Andy Aledort [repost]

Exclusive eLearning Videos ParRus-blogadd to bookmarks

Guitar World: In Deep - How To Play Like with Andy Aledort [repost]