Subcategories

FaderPro - In The Studio With Thomas Gold (2016)

Posted By: ParRus
FaderPro - In The Studio With Thomas Gold (2016)

FaderPro - In The Studio With Thomas Gold (2016)
WEBRip | English | MP4 | 1920 x 1080 | AVC ~2592 kbps | 29.970 fps
AAC | 144 Kbps | 48.0 KHz | 2 channels | 03:16:39 | 3.77 GB
Genre: Video Tutorial / Sound Processing, Music Production, Sound Engineering

Mega DJ & Producer, Thomas Gold has allowed us into his studio to show the world how he makes his music and specifically, how he created his newest single, "Saints & Sinners." He starts with a blank LogicPro session and works through every aspect of the production to its full completion. This is NOT a record deconstruction, this is a full-on step by step, in-studio course showing how an A-List producer & DJ makes his music.
Subjects covered include; creating the lead melody and what key's were used in making that melody, to working with the main vocals and how the vocal influenced his production style, working with Live instruments, including the guitar and how Thomas created guitar sounds in the box, then how he recorded those same parts using a live guitarist, to the arrangement of the sounds and song in its entirety. Thomas goes all the way through how he processed and mixed the record. You'll follow him through the entire creative and beat making process from start to finish.

also You can look my other last: Sound Processing-posts

General
Complete name : ThomasGold_S&S_FineCut.mp4
Format : MPEG-4
Format profile : Base Media
Codec ID : isom
File size : 3.77 GiB
Duration : 3h 16mn
Overall bit rate : 2 742 Kbps
Writing application : Lavf55.33.100

Video
ID : 1
Format : AVC
Format/Info : Advanced Video Codec
Format profile : Baseline@L4
Format settings, CABAC : No
Format settings, ReFrames : 4 frames
Format settings, GOP : M=1, N=59
Codec ID : avc1
Codec ID/Info : Advanced Video Coding
Duration : 3h 16mn
Bit rate : 2 592 Kbps
Width : 1 920 pixels
Height : 1 080 pixels
Display aspect ratio : 16:9
Frame rate mode : Constant
Frame rate : 29.970 fps
Color space : YUV
Chroma subsampling : 4:2:0
Bit depth : 8 bits
Scan type : Progressive
Bits/(Pixel*Frame) : 0.042
Stream size : 3.56 GiB (95%)
Writing library : Zencoder Video Encoding System
Color range : Limited
Color primaries : BT.709
Transfer characteristics : BT.709
Matrix coefficients : BT.709

Audio
ID : 2
Format : AAC
Format/Info : Advanced Audio Codec
Format profile : LC
Codec ID : 40
Duration : 3h 16mn
Bit rate mode : Constant
Bit rate : 144 Kbps
Channel(s) : 2 channels
Channel positions : Front: L R
Sampling rate : 48.0 KHz
Compression mode : Lossy
Stream size : 202 MiB (5%)

Screenshots

FaderPro - In The Studio With Thomas Gold (2016)

FaderPro - In The Studio With Thomas Gold (2016)

FaderPro - In The Studio With Thomas Gold (2016)

FaderPro - In The Studio With Thomas Gold (2016)

Exclusive eLearning Videos ParRus-blogadd to bookmarks

FaderPro - In The Studio With Thomas Gold (2016)