Lick Library: Learn To Play Steve Vai Volume 2, 2 DVD-set

Posted By: ParRus
Lick Library: Learn To Play Steve Vai Volume 2, 2 DVD-set

Lick Library: Learn To Play Steve Vai Volume 2, 2 DVD-set
2xDVDRip | English | MP4 + MP3 jam tracks | 768 x 576 | AVC ~1500 Kbps | 25 fps
AAC | 128 Kbps | 48.0 KHz | 2 channels | 05:35:40 | 3.86 GB
Genre: eLearning Video / Guitar lesson (2015)

Learn to play four of Steve Vai tracks note by note with Guthrie Govan and Dave Kilminster For The Love Of God Shy Boy Tender Surrender Attitude Song This 2 DVD set including over four hours of tutorials will teach you four songs note for note, encompassing both the superb melodic playing and fretboard pyrotechnics that define one of todays most influential guitarists. The DVD is hosted by Guthrie Govan and Dave Kilminster who have inspired and taught literally thousands of guitarists worldwide. Their versatility has seen them work with internationally recognised bands, as well as being regular contributors to the major guitar magazines.
General
Complete name : 8_For_The_Love_Of_God_Final_Verse.mp4
Format : MPEG-4
Format profile : Base Media
Codec ID : isom
File size : 141 MiB
Duration : 12mn 6s
Overall bit rate mode : Variable
Overall bit rate : 1 629 Kbps
Encoded date : UTC 2014-10-25 06:20:45
Tagged date : UTC 2014-10-25 06:20:45

Video
ID : 1
Format : AVC
Format/Info : Advanced Video Codec
Format profile : Baseline@L4.0
Format settings, CABAC : No
Format settings, ReFrames : 1 frame
Codec ID : avc1
Codec ID/Info : Advanced Video Coding
Duration : 12mn 6s
Bit rate : 1 500 Kbps
Maximum bit rate : 2 531 Kbps
Width : 768 pixels
Height : 576 pixels
Display aspect ratio : 4:3
Frame rate mode : Constant
Frame rate : 25.000 fps
Color space : YUV
Chroma subsampling : 4:2:0
Bit depth : 8 bits
Scan type : Progressive
Bits/(Pixel*Frame) : 0.136
Stream size : 130 MiB (92%)
Writing library : x264 core 142 r2479kMod dd79a61
Encoding settings : cabac=0 / ref=1 / deblock=0:0:0 / analyse=0:0 / me=dia / subme=0 / psy=1 / fade_compensate=0.00 / psy_rd=1.00:0.00 / mixed_ref=0 / me_range=16 / chroma_me=1 / trellis=0 / 8x8dct=0 / cqm=0 / deadzone=21,11 / fast_pskip=1 / chroma_qp_offset=0 / threads=12 / lookahead_threads=2 / sliced_threads=0 / nr=0 / decimate=1 / interlaced=0 / bluray_compat=0 / constrained_intra=0 / fgo=0 / bframes=0 / weightp=0 / keyint=250 / keyint_min=25 / scenecut=0 / intra_refresh=0 / rc=2pass / mbtree=0 / bitrate=1500 / ratetol=1.0 / qcomp=0.60 / qpmin=0 / qpmax=69 / qpstep=4 / cplxblur=20.0 / qblur=0.5 / ip_ratio=1.40 / aq=0
Encoded date : UTC 2014-10-25 06:20:45
Tagged date : UTC 2014-10-25 06:20:46

Audio
ID : 2
Format : AAC
Format/Info : Advanced Audio Codec
Format profile : LC
Codec ID : 40
Duration : 12mn 6s
Bit rate mode : Variable
Bit rate : 128 Kbps
Maximum bit rate : 144 Kbps
Channel(s) : 2 channels
Channel positions : Front: L R
Sampling rate : 48.0 KHz
Compression mode : Lossy
Stream size : 11.1 MiB (8%)
Encoded date : UTC 2014-10-25 06:20:01
Tagged date : UTC 2014-10-25 06:20:46
Screenshots

Lick Library: Learn To Play Steve Vai Volume 2, 2 DVD-set

Lick Library: Learn To Play Steve Vai Volume 2, 2 DVD-set

Lick Library: Learn To Play Steve Vai Volume 2, 2 DVD-set

Lick Library: Learn To Play Steve Vai Volume 2, 2 DVD-set

Lick Library: Learn To Play Steve Vai Volume 2, 2 DVD-set

For more, Visit my AH-blog

Lick Library: Learn To Play Steve Vai Volume 2, 2 DVD-set

Lick Library: Learn To Play Steve Vai Volume 2, 2 DVD-set