Subcategories

Legato Techniques for Absolute Beginners (2015)

Posted By: ParRus
Legato Techniques for Absolute Beginners (2015)

Legato Techniques for Absolute Beginners
DVDRip | English | MP4 + jam track + PDF tab | 1920 x 1080 | AVC ~1500 kbps | 25 fps
AAC | 128 Kbps | 48.0 KHz | 2 channels | 01:37:10 | 1.13 GB
Genre: eLearning Video / Guitar lesson (2015)

Learn the fundamentals of modern legato techniques with Tom Quayle. It's a bold step to say that a player takes a technique to the next level but it only takes a little bit of time online to see that Tom Quayle has truly made legato his own and taken it to a level unique to him. In this DVD aimed at beginners, Tom takes you through the basics of the technique to prime you for taking legato in the direction he's become best known for.
From hammer on and pull of exercises to finger dexterity and time feel guidance, there really is no better product on the market to prepare you for mastery of this exciting technique.

Chapters:
Introduction To Legato
Setting Your Gear Up For Legato
Introducing Left Hand Technique
Introducing Hammer-ons
Introducing Pull-offs
Right Hand Technique
Hammer-on & Pull-off Combinations
Introducing Slides & Position Shifts
Building Strength & Stamina
Using Legato On A Single String
Developing Speed
Performance

General
Complete name : 9_Building_Strength_&_Stamina.mp4
Format : MPEG-4
Format profile : Base Media
Codec ID : isom
File size : 86.1 MiB
Duration : 7mn 22s
Overall bit rate mode : Variable
Overall bit rate : 1 632 Kbps
Encoded date : UTC 2015-01-29 22:02:05
Tagged date : UTC 2015-01-29 22:02:05

Video
ID : 1
Format : AVC
Format/Info : Advanced Video Codec
Format profile : High@L4.0
Format settings, CABAC : Yes
Format settings, ReFrames : 4 frames
Codec ID : avc1
Codec ID/Info : Advanced Video Coding
Duration : 7mn 22s
Bit rate : 1 500 Kbps
Maximum bit rate : 3 448 Kbps
Width : 1 920 pixels
Height : 1 080 pixels
Display aspect ratio : 16:9
Frame rate mode : Constant
Frame rate : 25.000 fps
Color space : YUV
Chroma subsampling : 4:2:0
Bit depth : 8 bits
Scan type : Progressive
Bits/(Pixel*Frame) : 0.029
Stream size : 79.1 MiB (92%)
Writing library : x264 core 144 r2525kMod 40bb568
Encoding settings : cabac=1 / ref=4 / deblock=1:0:0 / analyse=0x3:0x113 / me=umh / subme=8 / psy=1 / fade_compensate=0.00 / psy_rd=1.00:0.00 / mixed_ref=1 / me_range=16 / chroma_me=1 / trellis=1 / 8x8dct=1 / cqm=0 / deadzone=21,11 / fast_pskip=1 / chroma_qp_offset=-2 / threads=12 / lookahead_threads=2 / sliced_threads=0 / nr=0 / decimate=1 / interlaced=0 / bluray_compat=0 / constrained_intra=0 / fgo=0 / bframes=3 / b_pyramid=2 / b_adapt=2 / b_bias=0 / direct=3 / weightb=1 / open_gop=0 / weightp=2 / keyint=250 / keyint_min=25 / scenecut=40 / intra_refresh=0 / rc_lookahead=50 / rc=2pass / mbtree=1 / bitrate=1500 / ratetol=1.0 / qcomp=0.60 / qpmin=0 / qpmax=69 / qpstep=4 / cplxblur=20.0 / qblur=0.5 / ip_ratio=1.40 / aq=1:1.00
Encoded date : UTC 2015-01-29 22:02:05
Tagged date : UTC 2015-01-29 22:02:06

Audio
ID : 2
Format : AAC
Format/Info : Advanced Audio Codec
Format profile : LC
Codec ID : 40
Duration : 7mn 22s
Bit rate mode : Variable
Bit rate : 128 Kbps
Maximum bit rate : 142 Kbps
Channel(s) : 2 channels
Channel positions : Front: L R
Sampling rate : 48.0 KHz
Compression mode : Lossy
Stream size : 6.74 MiB (8%)
Encoded date : UTC 2015-01-29 21:54:28
Tagged date : UTC 2015-01-29 22:02:06
Screenshots

Legato Techniques for Absolute Beginners (2015)

Legato Techniques for Absolute Beginners (2015)

Legato Techniques for Absolute Beginners (2015)

For more, Visit my AH-blog

no mirrors please, Follow The Rules

Legato Techniques for Absolute Beginners (2015)