Subcategories

Papastache - Blues Soloing Secrets Major Pentatonic Level 2 (2016)

Posted By: ParRus
Papastache - Blues Soloing Secrets Major Pentatonic Level 2 (2016)

Blues Soloing Secrets Major Pentatonic Level 2
WEBRip | English | MP4 + MP3 + PDF Guides | 1920 x 1080 | AVC ~4340 kbps | 23.976 fps
AAC 235 Kbps 48.0 KHz | 2 channels | 10:04:56 | 19.5 GB
Genre: eLearning Video / Guitar lesson

This product picks up where we left off in Blues Soloing Secrets Major Pentatonic Level 1. Now that you have a solid foundation on how to play the Major pentatonic scale correctly and have learned the scale shapes, it’s time to unleash the beast! This Blues Soloing Secrets Major Pentatonic level 2 course puts a heavy emphasis on melodic soloing ideas and techniques. I’ll show you how to bend, twist, and break all the rules of playing strict major pentatonic licks. This will open the door to understanding how the greats of guitar were able to craft such amazing melodic solos. You’ll learn the how-to’s of playing both inside and outside the box, taking your playing to a whole new level.
This course starts off like level 1 by going over lick ideas in each position. But now that your finger strength and dexterity has improved, its time to up your game. I help you do this by adding techniques like bending and vibrato, quicker runs, string skipping, more position shifts, chromatic licks, hybrid picking, and using more chord tones outside of the major pentatonic box. The creative potential these techniques unlock is endless and will take your playing to the place of your dreams.

In the second section, you’ll learn to apply these techniques practically. The professionally produced jam tracks are the same as in level one, so if you’re working through both courses you’re already familiar with where the target notes are. However, that is where the similarities stop. This course will challenge you with longer, faster, and more complex riffs while retaining the heavy emphasis on melody. I’ll also show you more examples over the verses and choruses, hitting those sections from every angle.

When you’re done with this course you’ll be ready to play out in bands and create your own memorable solos. If you’re into playing cover tunes, these ideas will translate well and give you an understanding of what’s happening in those awesome solos you’re playing. And, just in case you forget where you’re at in that amazing classic rock solo while playing in front of a packed house (I swear, that’s never happened to me); you’ll have the tools to land safe and sound without missing a beat.

As an added bonus, I’ll talk about all the gear used in making this video series and give you a quick guide on how to get awesome tones!

At over 9 hours and 51 minutes, I left no stone unturned in giving you the keys to the major pentatonic kingdom!

Tabs and jam tracks included.

Value: $80
More Info: Salepage

also You can look my other last: Guitar Lessons-posts

General
Complete name : 66 - Major Level 2 Clip 64 A New Day Verse Lick 1.mp4
Format : MPEG-4
Format profile : Base Media / Version 2
Codec ID : mp42
File size : 297 MiB
Duration : 9mn 4s
Overall bit rate mode : Variable
Overall bit rate : 4 579 Kbps
Encoded date : UTC 2016-05-21 01:51:47
Tagged date : UTC 2016-05-21 01:51:47

Video
ID : 1
Format : AVC
Format/Info : Advanced Video Codec
Format profile : High@L4
Format settings, CABAC : Yes
Format settings, ReFrames : 4 frames
Codec ID : avc1
Codec ID/Info : Advanced Video Coding
Duration : 9mn 4s
Bit rate : 4 340 Kbps
Width : 1 920 pixels
Height : 1 080 pixels
Display aspect ratio : 16:9
Frame rate mode : Constant
Frame rate : 23.976 fps
Color space : YUV
Chroma subsampling : 4:2:0
Bit depth : 8 bits
Scan type : Progressive
Bits/(Pixel*Frame) : 0.087
Stream size : 282 MiB (95%)
Writing library : x264 core 148 r11 a01e339
Encoding settings : cabac=1 / ref=4 / deblock=1:0:0 / analyse=0x3:0x113 / me=umh / subme=8 / psy=1 / psy_rd=1.00:0.00 / mixed_ref=1 / me_range=16 / chroma_me=1 / trellis=1 / 8x8dct=1 / cqm=0 / deadzone=21,11 / fast_pskip=1 / chroma_qp_offset=-2 / threads=34 / lookahead_threads=5 / sliced_threads=0 / nr=0 / decimate=1 / interlaced=0 / bluray_compat=0 / stitchable=1 / constrained_intra=0 / bframes=3 / b_pyramid=2 / b_adapt=2 / b_bias=0 / direct=3 / weightb=1 / open_gop=0 / weightp=2 / keyint=infinite / keyint_min=23 / scenecut=40 / intra_refresh=0 / rc_lookahead=50 / rc=crf / mbtree=1 / crf=20.0 / qcomp=0.60 / qpmin=5 / qpmax=69 / qpstep=4 / vbv_maxrate=4950 / vbv_bufsize=13500 / crf_max=0.0 / nal_hrd=none / filler=0 / ip_ratio=1.40 / aq=1:1.00
Encoded date : UTC 2016-05-21 01:51:47
Tagged date : UTC 2016-05-21 01:51:47
Color range : Limited
Color primaries : BT.709
Transfer characteristics : BT.709
Matrix coefficients : BT.709

Audio
ID : 2
Format : AAC
Format/Info : Advanced Audio Codec
Format profile : LC
Codec ID : 40
Duration : 9mn 4s
Bit rate mode : Variable
Bit rate : 235 Kbps
Channel(s) : 2 channels
Channel positions : Front: L R
Sampling rate : 48.0 KHz
Compression mode : Lossy
Stream size : 15.3 MiB (5%)
Encoded date : UTC 2016-05-21 01:51:47
Tagged date : UTC 2016-05-21 01:51:47
Screenshots

Papastache - Blues Soloing Secrets Major Pentatonic Level 2 (2016)

Papastache - Blues Soloing Secrets Major Pentatonic Level 2 (2016)

Papastache - Blues Soloing Secrets Major Pentatonic Level 2 (2016)

Papastache - Blues Soloing Secrets Major Pentatonic Level 2 (2016)

Papastache - Blues Soloing Secrets Major Pentatonic Level 2 (2016)

Papastache - Blues Soloing Secrets Major Pentatonic Level 2 (2016)

Papastache - Blues Soloing Secrets Major Pentatonic Level 2 (2016)

Exclusive eLearning Videos ParRus-blogadd to bookmarks

Papastache - Blues Soloing Secrets Major Pentatonic Level 2 (2016)