Subcategories

Masters in Mechanics Series - Cracking The Code, Season 2 (2016)

Posted By: ParRus
Masters in Mechanics Series - Cracking The Code, Season 2 (2016)

Masters in Mechanics Series - Cracking The Code, Season 2
WEBRip | English | MOV + PDF tabs | 1920 x 1080 | AVC ~10.2 Mbps | 30 fps
AAC 192 Kbps 44.1 KHz | 2 channels | 04:10:42 | 16.9 GB
Genre: eLearning Video / Guitar lesson

The Cracking the Code Season 2 Pass is the ultimate step-by-step guide to the techniques of legendary players like Yngwie, Eric Johnson, Shawn Lane, Michael Angelo Batio, Eddie Van Halen, Steve Vai, Paul Gilbert, and more. Each episode arrives with an extensive course pack of detailed performance notes, our ultra-revealing 120fps slow-motion video clips, and complete tablature in PDF and Guitar Pro formats. With a new pack for each episode, this makes Season 2 more like eight instructional videos in one.
In Episode 1, you’ll learn about the power of Yngwie’s alternate picking approach, and its key ingredient: downward pickslanting. The first in a two-episode cycle completely outlining the Yngwie picking technique.

Season Pass course materials:
”DWPS Pack”: Ultimate beginners guide to picking mechanics
One hour, six video chapters — Watch Chapter One!
20 slow-motion clips — View Examples: The Pop Tarts Lick, Trilogy 3-Octave
Complete tablature for all clips — View Example Tabs: The Pop Tarts Lick, Trilogy 3-Octave
22 pages of performance notes — View Sample!
Bonus soundtrack pack of 12 songs from the episode
Tabs and performance notes for selected songs

In Episode 2, we explore Yngwie’s ingenious system for integrating alternate picking and sweeping via downward pickslanting, and unlock his asymmetrical one-way pickslanting formula — among the most powerful picking strategies ever devised.

Season Pass course materials:
“Volcano Pack” with 20 Yngwie-style clips
10 “Arpeggio” clips — View Example: 3-String Minor Positions
10 “Scales” clips — View Example: Descending Fours
Complete tablature for all clips — View Example Tabs: 3-String Minor Positions, Descending Fours
Performance notes deconstructing Yngwie’s strategy — View Sample!

In Episode 3, you’ll get a complete blueprint of Eric Johnson’s picking technique, and investigate the engineering genius behind his long, flowing pentatonic licks, trademark hybrid fives mechanic, unique one-note-per-string “bounce” technique, and more.

Season Pass course materials:
Episode 3’s “EJ Pack” with 34 Johnsonian clips — Watch the “Cliffs of Doverkill” EJ Sampler
Signature EJ multi-position cascading phrases — View Example: Pentatonic I–III Cascade
High-speed pentatonics — View Example: 2nps Pentatonics
Complete tablature for all clips — View Example Tabs: Pentatonic I–III Cascade, 2nps Pentatonics (Ascending), 2nps Pentatonics (Descending)
Exhaustively detailed 25-page performance notes — View Sample!
Bonus song + tabs from the episode: “TG’s Bounce”

also You can look my other last: Guitar Lessons-posts

General
Complete name : 25 - Season 2, Episode 2 - Inside the Volcano - 1080p.mov
Format : MPEG-4
Format profile : QuickTime
Codec ID : qt
File size : 1.47 GiB
Duration : 20mn 8s
Overall bit rate mode : Variable
Overall bit rate : 10.4 Mbps
Movie name : Ep. 1 - Get Down for the Upstroke
Album/Performer : Troy Grady
Encoded date : UTC 2014-10-16 23:56:29
Tagged date : UTC 2014-10-17 00:56:40
Writing library : Apple QuickTime 7.7.3
com.apple.quicktime.author : Troy Grady
com.apple.quicktime.title : Ep. 1 - Get Down for the Upstroke
com.apple.quicktime.player.movie.audio.m : (Binary)
desc : This video is about cc10

Video
ID : 2
Format : AVC
Format/Info : Advanced Video Codec
Format profile : Main@L4.0
Format settings, CABAC : No
Format settings, ReFrames : 2 frames
Format settings, GOP : M=2, N=24
Codec ID : avc1
Codec ID/Info : Advanced Video Coding
Duration : 20mn 8s
Bit rate mode : Variable
Bit rate : 10.2 Mbps
Maximum bit rate : 768 Kbps
Width : 1 920 pixels
Height : 1 080 pixels
Display aspect ratio : 16:9
Frame rate mode : Constant
Frame rate : 30.000 fps
Original frame rate : 25.000 fps
Color space : YUV
Chroma subsampling : 4:2:0
Bit depth : 8 bits
Scan type : Progressive
Bits/(Pixel*Frame) : 0.165
Stream size : 1.44 GiB (98%)
Title : Core Media Video
Encoded date : UTC 2014-10-16 23:56:29
Tagged date : UTC 2014-10-17 00:56:40
Color primaries : BT.709-5, BT.1361, IEC 61966-2-4, SMPTE RP177
Transfer characteristics : BT.709-5, BT.1361
Matrix coefficients : BT.709-5, BT.1361, IEC 61966-2-4 709, SMPTE RP177

Audio
ID : 1
Format : AAC
Format/Info : Advanced Audio Codec
Format profile : LC
Codec ID : 40
Duration : 20mn 8s
Source duration : 20mn 8s
Bit rate mode : Constant
Bit rate : 192 Kbps
Channel(s) : 2 channels
Channel positions : Front: L R
Sampling rate : 44.1 KHz
Compression mode : Lossy
Stream size : 27.3 MiB (2%)
Source stream size : 27.3 MiB (2%)
Title : Core Media Audio
Language : English
Encoded date : UTC 2014-10-16 23:56:29
Tagged date : UTC 2014-10-17 00:56:40

Menu
ID : 3
Title : Core Media Time Code
Encoded date : UTC 2014-10-16 23:56:29
Tagged date : UTC 2014-10-17 00:06:56
Screenshots

Masters in Mechanics Series - Cracking The Code, Season 2 (2016)

Masters in Mechanics Series - Cracking The Code, Season 2 (2016)

Masters in Mechanics Series - Cracking The Code, Season 2 (2016)

Masters in Mechanics Series - Cracking The Code, Season 2 (2016)

Exclusive eLearning Videos ParRus-blogadd to bookmarks

Masters in Mechanics Series - Cracking The Code, Season 2 (2016)