MedStudy - 2014 Video Board Review of Pediatrics

Posted By: ParRus
MedStudy - 2014 Video Board Review of Pediatrics

MedStudy - 2014 Video Board Review of Pediatrics
WEBRip | English | MP4 + PDF Guides | 640 x 480 | MPEG-4 ~394 kbps | 29.970 fps
AAC | 75 Kbps | 44.1 KHz | 2 channels | 48:30:22 | 10.7 GB
Genre: eLearning Video / Medicine

Experience the live course that sets the standard for effective board review Top speakers Our presenters come from a pool of recommended “best instructors” who give you second-to-none topical expertise and proven instruction styles. Using MedStudy’s Pediatrics Core Curriculum books as their outline, our outstanding speakers cover the same topics in roughly the same sequence as the books.
Q&A pearls
During the course, each speaker offers his or her own board-relevant questions and answers to help you gauge your basic knowledge of the topic area. Speakers follow up by addressing these questions during lecture time.

Tough topic mastery
Master topics like immunization schedules, developmental milestones, genetic syndromes, statistics, pediatric ECGs, antibiotic choices, and more! MedStudy helps you take the tough topics from mystery—to mastery.

Pretest and Posttest
Taken online prior to and following the course, these practice test sessions help you gauge your board-readiness and provide invaluable experience answering board-style questions.

Substantive syllabus in 2 formats
Instead of a sketchy outline, you get the perfect follow-up reference. Our course syllabus contains virtually every text, illustration, photo, diagram, and table the speakers use so you can listen attentively rather than madly scribbling notes. Provided for your convenience in both color eSyllabus format and black-and-white paper edition at no extra charge.

Intended Audience:
Medical Students , Pediatrics Residents, Practicing Pediatrician etc.

Included:
1. All Videos
2. Course PDF
3. Flash Card

Content:
01 General Pediatrics
02 Emergency _ Toxicology
04 Genetics
05 Inborn Errors of Metabolism
06 Neonatology
Adolescent Medicine
Allergy Immunology
Cardiology
Dermatology
Endocrinology
Gastroenterology
Hematology
Immunizations
Infectious Disease 1 of 2
Infectious Disease 2 of 2
InfSexually Transmitted Diseases
Nephrology
Neurology
Oncology
Pulmonary Medicine
Rheumatology
Statistics

MedStudy - 2010 Video Board Review of Internal Medicine

Medstudy Internal Medicine - Board Review Course (2015)


also You can look my other last: Medicine-posts

General
Complete name : Oncology.mp4
Format : MPEG-4
Format profile : Base Media
Codec ID : isom
File size : 239 MiB
Duration : 1h 10mn
Overall bit rate mode : Variable
Overall bit rate : 474 Kbps
Encoded date : UTC 1970-01-01 00:00:00
Tagged date : UTC 1970-01-01 00:00:00

Video
ID : 1
Format : MPEG-4 Visual
Format profile : Simple@L1
Format settings, BVOP : No
Format settings, QPel : No
Format settings, GMC : No warppoints
Format settings, Matrix : Default (H.263)
Codec ID : 20
Duration : 1h 10mn
Bit rate mode : Variable
Bit rate : 394 Kbps
Maximum bit rate : 12.5 Mbps
Width : 640 pixels
Height : 480 pixels
Display aspect ratio : 4:3
Frame rate mode : Constant
Frame rate : 29.970 fps
Color space : YUV
Chroma subsampling : 4:2:0
Bit depth : 8 bits
Scan type : Progressive
Compression mode : Lossy
Bits/(Pixel*Frame) : 0.043
Stream size : 199 MiB (83%)
Writing library : Lavc53.8.0
Encoded date : UTC 1970-01-01 00:00:00
Tagged date : UTC 1970-01-01 00:00:00

Audio
ID : 2
Format : AAC
Format/Info : Advanced Audio Codec
Format profile : LC
Codec ID : 40
Duration : 1h 10mn
Bit rate mode : Variable
Bit rate : 75.0 Kbps
Maximum bit rate : 128 Kbps
Channel(s) : 2 channels
Channel positions : Front: L R
Sampling rate : 44.1 KHz
Compression mode : Lossy
Stream size : 37.9 MiB (16%)
Encoded date : UTC 1970-01-01 00:00:00
Tagged date : UTC 1970-01-01 00:00:00
Screenshots

MedStudy - 2014 Video Board Review of Pediatrics

MedStudy - 2014 Video Board Review of Pediatrics

MedStudy - 2014 Video Board Review of Pediatrics

MedStudy - 2014 Video Board Review of Pediatrics

MedStudy - 2014 Video Board Review of Pediatrics

MedStudy - 2014 Video Board Review of Pediatrics

MedStudy - 2014 Video Board Review of Pediatrics

MedStudy - 2014 Video Board Review of Pediatrics

Exclusive eLearning Videos ParRus-blogadd to bookmarks

MedStudy - 2014 Video Board Review of Pediatrics