Subcategories

Tom Quayle - Technique Essentials: Modern Legato Part 3 (2015)

Posted By: ParRus
Tom Quayle - Technique Essentials: Modern Legato Part 3 (2015)

Tom Quayle - Technique Essentials: Modern Legato Part 3
WEBRip | English | MP4 + MP3 Jam Tracks | 1280 x 720 | AVC ~2502 Kbps | 25 fps
AAC | 128 Kbps | 44.1 KHz | 2 channels | 1h 50min | 2.03 GB
Genre: eLearning Video / Guitar lesson

Part 3 of Tom's Modern Legato series is finally here and is his biggest tutorial yet. In this 1 hour 50min video lesson, Tom breaks down his methods and thought processes for creating his trademark flowing legato lines, bringing together all of the knowledge and technical skills from parts 1 and 2 into a fantastic resource for developing a modern legato style in any genre. Tom focuses on a detailed but easy to understand fragment approach to line construction and also tackles rhythmic awareness and accuracy, utilising melodic minor scales/modes and using legato in changes based playing. The tutorial includes 14 pages of lines and transcribed solos (in both standard and 4ths tunings) plus backing tracks to practice with. There are hundreds of lines to get to grips and analyse here. Combined with parts one and two this makes for the most comprehensive legato course available!
volume 1: Tom Quayle - Technique Essentials: Modern Legato Part 1

also You can look my other last: Guitar Lessons-posts

General
Complete name : Modern Legato 3.mp4
Format : MPEG-4
Format profile : Base Media
Codec ID : isom
File size : 2.03 GiB
Duration : 1h 50mn
Overall bit rate : 2 635 Kbps
Movie name : Modern Legato 3
Encoded date : UTC 2013-12-06 10:51:34
Tagged date : UTC 2013-12-06 10:51:34
stik :
iTunMOVI : <?xml version="1.0" encoding="UTF-8"?><!DOCTYPE plist PUBLIC "-//Apple Computer//DTD PLIST 1.0//EN" "http://www.apple.com/DTDs/PropertyList-1.0.dtd"><plist version="1.0"><dict><key>copy-warning</key><string>copy_warning</string><key>studio</key><string>studio</string><key>cast</key><array><dict><key>name</key><string></string></dict></array><key>directors</key><array><dict><key>name</key><string></string></dict></array><key>producers</key><array><dict><key>name</key><string></string></dict></array><key>codirectors</key><array><dict><key>name</key><string>codirector</string></dict></array><key>screenwriters</key><array><dict><key>name</key><string></string></dict></array></dict></plist>

Video
ID : 2
Format : AVC
Format/Info : Advanced Video Codec
Format profile : Baseline@L3.0
Format settings, CABAC : No
Format settings, ReFrames : 1 frame
Format settings, GOP : M=1, N=25
Muxing mode : Container profile=Baseline@4.1
Codec ID : avc1
Codec ID/Info : Advanced Video Coding
Duration : 1h 50mn
Bit rate : 2 502 Kbps
Width : 1 280 pixels
Height : 720 pixels
Display aspect ratio : 16:9
Frame rate mode : Constant
Frame rate : 25.000 fps
Color space : YUV
Chroma subsampling : 4:2:0
Bit depth : 8 bits
Scan type : Progressive
Bits/(Pixel*Frame) : 0.109
Stream size : 1.92 GiB (95%)
Language : English

Audio
ID : 1
Format : AAC
Format/Info : Advanced Audio Codec
Format profile : LC
Codec ID : 40
Duration : 1h 50mn
Bit rate mode : Constant
Bit rate : 128 Kbps
Channel(s) : 2 channels
Channel positions : Front: L R
Sampling rate : 44.1 KHz
Compression mode : Lossy
Stream size : 101 MiB (5%)
Language : English
Screenshots

Tom Quayle - Technique Essentials: Modern Legato Part 3 (2015)

Tom Quayle - Technique Essentials: Modern Legato Part 3 (2015)

Tom Quayle - Technique Essentials: Modern Legato Part 3 (2015)

Tom Quayle - Technique Essentials: Modern Legato Part 3 (2015)

For more Exclusive material, Visit my AH-blog

Tom Quayle - Technique Essentials: Modern Legato Part 3 (2015)