Subcategories

Unity: Particles from beginner to advanced! (2017)

Posted By: ParRus
Unity: Particles from beginner to advanced! (2017)

Unity: Particles from beginner to advanced! (2017)
WEBRip | English | MP4 + Project Files | 1280 x 720 | AVC ~781 kbps | 30 fps
AAC | 192 Kbps | 48.0 KHz | 2 channels | ~2 hours | 575 MB
Genre: eLearning Video / Game Development

Take your games to the next level by recreating amazing particles seen in other AAA games.
What Will I Learn?

Create amazing particles used in AAA games.
Advance your games to the next level with stunning particle effects.

Requirements

Have a computer that can run Unity.
Have Unity installed.

Description

In this course we will teach you everything you need to know about the Unity particle system.
You will learn how to create particles on examples, this means that we will take particles from other games as inspiration, and recreate those so you can get a better understanding of how they were made.

Particles and special effects are an important part of every game and as a game developer you should take the time to learn as much about them as you can.

No coding involved, we will just be using Unity's built in particle editor.

Who is the target audience?

This course is for game developers who want to learn more about particles in Unity.
For people who wish to take their game development skills to the next level with amazing particles.
Beginners and professionals alike.

also You can find my other last: Programming-posts

General
Complete name : \015 Adding chunks to our Explosion Effect..mp4
Format : MPEG-4
Format profile : Base Media / Version 2
Codec ID : mp42 (isom/iso2/avc1/mp41/mp42)
File size : 35.9 MiB
Duration : 5 min 9 s
Overall bit rate mode : Variable
Overall bit rate : 971 kb/s
Encoded date : UTC 2017-04-22 19:47:06
Tagged date : UTC 2017-04-22 19:47:06
Writing application : Lavf53.32.100

Video
ID : 1
Format : AVC
Format/Info : Advanced Video Codec
Format profile : High@L3
Format settings, CABAC : Yes
Format settings, ReFrames : 4 frames
Codec ID : avc1
Codec ID/Info : Advanced Video Coding
Duration : 5 min 9 s
Bit rate : 781 kb/s
Width : 1 280 pixels
Height : 720 pixels
Display aspect ratio : 16:9
Frame rate mode : Constant
Frame rate : 30.000 FPS
Color space : YUV
Chroma subsampling : 4:2:0
Bit depth : 8 bits
Scan type : Progressive
Bits/(Pixel*Frame) : 0.028
Stream size : 28.7 MiB (80%)
Writing library : x264 core 136
Encoding settings : cabac=1 / ref=4 / deblock=1:0:0 / analyse=0x3:0x113 / me=umh / subme=7 / psy=0 / mixed_ref=1 / me_range=16 / chroma_me=1 / trellis=1 / 8x8dct=1 / cqm=0 / deadzone=21,11 / fast_pskip=0 / chroma_qp_offset=0 / threads=48 / lookahead_threads=5 / sliced_threads=0 / nr=0 / decimate=1 / interlaced=0 / bluray_compat=0 / constrained_intra=0 / bframes=16 / b_pyramid=2 / b_adapt=1 / b_bias=0 / direct=1 / weightb=1 / open_gop=0 / weightp=2 / keyint=300 / keyint_min=25 / scenecut=40 / intra_refresh=0 / rc=2pass / mbtree=0 / bitrate=781 / ratetol=1.0 / qcomp=0.60 / qpmin=10 / qpmax=51 / qpstep=4 / cplxblur=20.0 / qblur=0.5 / ip_ratio=1.40 / pb_ratio=1.30 / aq=1:1.00
Encoded date : UTC 2017-04-22 19:47:06
Tagged date : UTC 2017-04-22 20:40:07

Audio
ID : 2
Format : AAC
Format/Info : Advanced Audio Codec
Format profile : LC
Codec ID : 40
Duration : 5 min 9 s
Bit rate mode : Variable
Bit rate : 192 kb/s
Channel(s) : 2 channels
Channel positions : Front: L R
Sampling rate : 48.0 kHz
Frame rate : 46.875 FPS (1024 spf)
Compression mode : Lossy
Stream size : 6.99 MiB (19%)
Default : Yes
Alternate group : 1
Encoded date : UTC 2017-04-22 19:47:06
Tagged date : UTC 2017-04-22 20:40:07
Screenshots

Unity: Particles from beginner to advanced! (2017)

Unity: Particles from beginner to advanced! (2017)

Unity: Particles from beginner to advanced! (2017)

Unity: Particles from beginner to advanced! (2017)

Unity: Particles from beginner to advanced! (2017)

Exclusive eLearning Videos ParRus-blogadd to bookmarks

Feel free to contact me PM
when links are dead or want any repost

Unity: Particles from beginner to advanced! (2017)